Завантажити та скачати торренти українською


Рембо. Збірка / Rambo: Quadrilogy (1982-2008) 720р Ukr/Eng | Sub Eng

Нові коментарі

Нова тема   Відповісти
Автор Повідомлення
Віктор 
Відео Гуртом - субтитрування
Відео Гуртом - субтитрування


З нами з: 09.01.10
Востаннє: 09.12.16
Повідомлень: 8663

2011-11-29 00:24  
Рембо. Збірка / Rambo: Quadrilogy (1982-1985-1988-2008) 720р Ukr/Eng | Sub Eng


Рембо. Перша кров / First Blood (1982) 720р Ukr/Eng | Sub Eng
Рембо. Перша кров / First Blood (1982) 720р Ukr/Eng | Sub Eng



«One war against one man.»


Жанр: драма, пригодницький, трилер
Країна: США



Кіностудія / кінокомпанія: Anabasis N.V., Elcajo Productions
Режисер: Тед Котчеф (Ted Kotcheff)
Композитор: Джеррі Ґолдсміт (Jerry Goldsmith)
Актори: Сильвестер Сталлоне (Sylvester Stallone), Річард Крена (Richard Crenna), Браян Деннегі (Brian Dennehy), Білл КакКінні (Bill McKinney), Джек Старет (Jack Starrett), Девід Карузо (David Caruso), Брюс Ґрінвуд (Bruce Greenwood) та інші.

Сюжет:
Він – знавець. Знавець зброї, ножів і власного тіла. Людина, навчена не зважати на біль та погодні умови. У В’єтнамі він мав завдання убивати. Багато вбивати. Виснажувати ворога до цілковитої перемоги. Рембо – був найкращим. На війні він був героєм, а на батьківщині, заради якої проливав кров, він нікому не потрібен.
Цікаві факти

Цікаві факти про фільм


• «Рембо» - назва сорту яблук - саме сорт яблук, за словами автора ориґінальної книги, дав прізвище головному героєві.
• Серед інших кандидатів, на роль Рембо планувався – Джон Траволта.
• Спочатку кошторис сягав 11 мільйонів доларів, але був значно перевищений. Загальна вартість фільму склала майже 17 мільйонів доларів, у зв’язку з тим, що знімальний процес тривав на 1 місяць довше.
• Сильвестер Сталоне просив за роль 3.5 мільйона доларів, але продюсери фільму умовили його погодитися на 2 мільйони. Ще 1.5 мільйона він отримав від прокату фільму на ТБ.
• Між ориґінальною книгою і фільмом – є багато сюжетних розбіжностей. Наприклад, у книзі головний герой гине.
• Був знятий альтернативний фінал, в якому Рембо наклав на себе руки. Але тестові перегляди показали, що глядачів таке завершення занадто пригнічує.
• Незважаючи на репутацію надмірно жорстокого фільму, загалом у фільмі загинуло 4 людини: помічник шерифа, який випав з гелікоптера і 3-оє поліцейських, що вибухнули в машині під час переслідування Рембо.
• У фільмі могли зіграти Клінт Іствуд, Стів Макквін, Аль Пачіно і Дастін Гофмен.
• Кошторис - $14,000,000.
MediaInfo

Код:
General
Unique ID                                : 204949979735748155630615697313862846450 (0x9A2FEE28A142C4B68EBB4332E0ED07F2)
Complete name                            : D:\HURTOM\Rambo. Quadrilogy (1982-1985-1988-2008) 720p [Hurtom]\First Blood (1982) [Ukr, Eng] 720p [Hurtom].mkv
Format                                   : Matroska
Format version                           : Version 2
File size                                : 5.34 GiB
Duration                                 : 1h 33mn
Overall bit rate mode                    : Variable
Overall bit rate                         : 8 192 Kbps
Movie name                               : First Blood (1982) [Ukr, Eng] 720p [Hurtom]
Encoded date                             : UTC 2011-11-18 11:44:44
Writing application                      : mkvmerge v5.0.1 ('Es ist Sommer') built on Oct  9 2011 11:55:43
Writing library                          : libebml v1.2.2 + libmatroska v1.3.0

Video
ID                                       : 1
Format                                   : AVC
Format/Info                              : Advanced Video Codec
Format profile                           : [email protected]
Format settings, CABAC                   : Yes
Format settings, ReFrames                : 4 frames
Codec ID                                 : V_MPEG4/ISO/AVC
Duration                                 : 1h 33mn
Bit rate                                 : 6 070 Kbps
Width                                    : 1 280 pixels
Height                                   : 546 pixels
Display aspect ratio                     : 2.35:1
Frame rate                               : 23.976 fps
Color space                              : YUV
Chroma subsampling                       : 4:2:0
Bit depth                                : 8 bits
Scan type                                : Progressive
Bits/(Pixel*Frame)                       : 0.362
Stream size                              : 3.83 GiB (72%)
Title                                    : First Blood (1982) [Ukr, Eng] 720p [Hurtom]
Writing library                          : core 116 r2019 9cc407d
Encoding settings                        : cabac=1 / ref=4 / deblock=1:-3:-3 / analyse=0x3:0x113 / me=umh / subme=9 / psy=1 / psy_rd=1.20:0.10 / mixed_ref=1 / me_range=24 / chroma_me=1 / trellis=2 / 8x8dct=1 / cqm=0 / deadzone=21,11 / fast_pskip=1 / chroma_qp_offset=-3 / threads=3 / sliced_threads=0 / nr=0 / decimate=0 / interlaced=0 / bluray_compat=0 / constrained_intra=0 / bframes=7 / b_pyramid=2 / b_adapt=2 / b_bias=0 / direct=3 / weightb=1 / open_gop=0 / weightp=2 / keyint=250 / keyint_min=23 / scenecut=40 / intra_refresh=0 / rc_lookahead=40 / rc=2pass / mbtree=1 / bitrate=6070 / ratetol=1.0 / qcomp=0.60 / qpmin=0 / qpmax=69 / qpstep=4 / cplxblur=20.0 / qblur=0.5 / ip_ratio=1.40 / aq=1:1.20
Language                                 : English

Audio #1
ID                                       : 2
Format                                   : AC-3
Format/Info                              : Audio Coding 3
Mode extension                           : CM (complete main)
Codec ID                                 : A_AC3
Duration                                 : 1h 33mn
Bit rate mode                            : Constant
Bit rate                                 : 448 Kbps
Channel(s)                               : 6 channels
Channel positions                        : Front: L C R, Side: L R, LFE
Sampling rate                            : 48.0 KHz
Bit depth                                : 16 bits
Compression mode                         : Lossy
Delay relative to video                  : 1s 45ms
Stream size                              : 299 MiB (5%)
Title                                    : 5.1 @ 448 kbps - двоголосий закадровий
Language                                 : Ukrainian

Audio #2
ID                                       : 3
Format                                   :
Format/Info                              : Digital Theater Systems
Codec ID                                 : A_DTS
Duration                                 : 1h 33mn
Bit rate mode                            : Constant
Bit rate                                 : 1 510 Kbps
Channel(s)                               : 6 channels
Channel positions                        : Front: L C R, Side: L R, LFE
Sampling rate                            : 48.0 KHz
Bit depth                                : 16 bits
Compression mode                         : Lossy
Stream size                              : 1 007 MiB (18%)
Title                                    : 5.1 @ 1536 kbps
Language                                 : English

Audio #3
ID                                       : 4
Format                                   : Vorbis
Format settings, Floor                   : 1
Codec ID                                 : A_VORBIS
Duration                                 : 1h 33mn
Bit rate mode                            : Variable
Bit rate                                 : 96.0 Kbps
Channel(s)                               : 2 channels
Sampling rate                            : 48.0 KHz
Compression mode                         : Lossy
Stream size                              : 64.0 MiB (1%)
Title                                    : OGG 2.0 @ 96 kbps - коментарі Сільвестра Сталлоне
Writing library                          : aoTuV 20110424 (UTC 2011-04-24)
Language                                 : English

Audio #4
ID                                       : 5
Format                                   : Vorbis
Format settings, Floor                   : 1
Codec ID                                 : A_VORBIS
Duration                                 : 1h 33mn
Bit rate mode                            : Variable
Bit rate                                 : 96.0 Kbps
Channel(s)                               : 2 channels
Sampling rate                            : 48.0 KHz
Compression mode                         : Lossy
Stream size                              : 64.0 MiB (1%)
Title                                    : OGG 2.0 @ 96 kbps - коментарі Девіда Моррелла
Writing library                          : aoTuV 20110424 (UTC 2011-04-24)
Language                                 : English

Text
ID                                       : 6
Format                                   : UTF-8
Codec ID                                 : S_TEXT/UTF8
Codec ID/Info                            : UTF-8 Plain Text
Language                                 : English

Menu
00:00:00.000                             : en:Main Credits
00:02:20.641                             : en:Served Together
00:04:44.201                             : en:The Law
00:08:05.985                             : en:Concealed Weapon
00:09:53.843                             : en:"Your Name?"
00:12:46.766                             : en:Fingerprints
00:15:01.859                             : en:Escape
00:17:36.555                             : en:Tailing Rambo
00:22:06.450                             : en:Fleeing Justice
00:24:49.154                             : en:Free Fall
00:32:12.430                             : en:War Hero
00:34:14.344                             : en:Decoy
00:37:16.818                             : en:Weakening the Enemy
00:42:11.946                             : en:Colonel Samuel Trautman
00:47:21.672                             : en:Defuse the Situation
00:50:21.352                             : en:Drew First Blood
00:53:55.274                             : en:No Shooting
00:58:21.915                             : en:Trapped
01:02:41.675                             : en:Rats
01:08:01.744                             : en:Passage Out
01:10:33.938                             : en:On the Loose
01:13:37.121                             : en:Diversion
01:15:21.851                             : en:Evacuation
01:17:42.366                             : en:On the Roof
01:19:06.533                             : en:Power Outage
01:22:03.669                             : en:Revenge
01:24:17.135                             : en:"It's Over"
01:26:24.221                             : en:Can't Forget
01:28:34.851                             : en:Surrender
01:29:47.924                             : en:End Credits
Усі наявні релізи

Завантажити:
720р Ukr/Eng | Sub Eng (19.47 GB (У складі квадрології) - двоголосий закадровий Студія 1+1 звук записано з 2+2
Ukr/Eng (7.01 GB (У складі квадрології) - двоголосий закадровий Студія 1+1

Ролі озвучили: Володимир Нечепоренко
Тривалість: 01:33:16
Якість: 720р (DON)
Відео:
кодек:
розмір кадру: 1280x546
бітрейт: 6070 кб/с
частота кадрів: 23.976 fps

Аудіо # 1:
мова: українська
переклад: двоголосий закадровий запис з 2+2 | усі чоловічі ролі озвучив Володимир Нечепоренко
кодек: 5.1
бітрейт: 448 кб/с

Аудіо # 2:
мова: англійська
переклад: ориґінал
кодек: 5.1
бітрейт: 1536 кб/с

Аудіо # 3-4:
мова: анґлійська (1- коментарі Сильвестра Сталлоне, 2 - коментарі Дейвіда Морела)
кодек: OGG 2.0
бітрейт: 96 кб/с

Субтитри:
мова: анґлійська
тип: проґрамні (м'які)
формат: *.srt

Скріншоти:


Рембо. Перша кров. Частина друга / Rambo: First Blood Part II (1985) 720р Ukr/Eng | Sub Eng
Рембо. Перша кров. Частина друга / Rambo: First Blood Part II (1985) 720р Ukr/Eng | Sub Eng




«No man, no law, no war can stop him.»


Жанр: бойовик, пригодницький, трилер
Країна: США



Кіностудія / кінокомпанія: Anabasis N.V.
Режисер: Джордж П. Косматос (George P. Cosmatos)
Композитор: Джеррі Ґолдсміт (Jerry Goldsmith)
Актори: Сильвестер Сталлоне (Sylvester Stallone), Річард Кренна (Richard Crenna), Чарльз Нап’єр (Charles Napier), Стівен Беркоф (Steven Berkoff), Джулія Ніксон-Соул (Julia Nickson-Soul) та інші.

Сюжет:
Джон Рембо відбуває покарання у в’язниці суворого режиму. Він змирився зі своєю долею, та навіть у такому становищі не перестав поважати основні закони військового братерства: вірити напарникові, прикривати його спину, віддати своє життя за нього і свою країну.
Коли полковник Трутмен, колишній боєвий командир Джона Рембо, пропонує йому вирушити у В’єтнам на спецоперацію з порятунку полонених американських солдатів, Рембо не вагається й одразу погоджується.
Номінації, перемоги, цікаві факти

Оскар, 1986 рік
Номінації (1):
Найкращий монтаж звуку

[center]Золота малина, 1986 рік
Переможець (4):
Найгірший фільм
Найгірша чоловіча роль (Сильвестр Сталлоне)
Найгірший сценарій
Найгірша пісня - «Peace in Our Life»

Номінації (3):
Найгірша жіноча роль другого плану (Джулія Ніксон-Соул)
Найгірший режисер (Джордж Пан Косматос)
Найгірша нова зірка (Джулія Ніксон-Соул)

Цікаві факти про фільм


• Джеймс Камерон, який значиться в титрах фільму співавтором сценарію разом із Сильвестром Сталоне, стверджує, що він написав лише перший варіянт, який потім був сильно змінений Сталоне.
• Згідно з інформацією, яка була в одному з документальних фільмів, продюсери картини мали намір зробити партнером Сталоне в другій частині Джона Траволту, якому належало зіграти напарника Рембо, який теж брав участь у порятунку американських військовополонених. Сталоне ця ідея не сподобалася, оскільки він не хотів ні з ким ділити лаври.
• Дольф Лундґрен отримав у картині одну з ролей, але Сталоне вирішив зняти його в «Рокі 4» і тому з цієї стрічки звільнив.
• Це перший фільм, що одночасно вийшов на екрани більше ніж у 2000 кінотеатрах США.
• Підполковник Падовський - єдиний лиходій, у якого в сценарії є хоча б одна фраза анґлійською.
• Оскільки дістати зразок радянського військового вертольота для знімальної групи було не можливо, під «МІ-24» був заґримований Aerospatiale SA 330 Puma transport. Експерти вважають, що заґримований вертоліт був вдало - він дійсно схожий на машини серії МІ.
• Військова база у фільмі знімалася на базі ВПС Мексики.
• Кошторис - $44,000,000.
MediaInfo

Код:
General
Unique ID                                : 249015127680315585778584419268496865192 (0xBB5691B091E5D7FA84147AE7FF2E37A8)
Complete name                            : D:\HURTOM\Rambo. Quadrilogy (1982-1985-1988-2008) 720p [Hurtom]\First Blood II (1985) [Ukr, Eng] 720p [Hurtom].mkv
Format                                   : Matroska
Format version                           : Version 2
File size                                : 4.73 GiB
Duration                                 : 1h 35mn
Overall bit rate mode                    : Variable
Overall bit rate                         : 7 050 Kbps
Movie name                               : First Blood II (1985) [Ukr, Eng] 720p [Hurtom]
Encoded date                             : UTC 2011-11-18 12:00:08
Writing application                      : mkvmerge v5.0.1 ('Es ist Sommer') built on Oct  9 2011 11:55:43
Writing library                          : libebml v1.2.2 + libmatroska v1.3.0

Video
ID                                       : 1
Format                                   : AVC
Format/Info                              : Advanced Video Codec
Format profile                           : [email protected]
Format settings, CABAC                   : Yes
Format settings, ReFrames                : 5 frames
Codec ID                                 : V_MPEG4/ISO/AVC
Duration                                 : 1h 35mn
Bit rate                                 : 5 011 Kbps
Width                                    : 1 280 pixels
Height                                   : 544 pixels
Display aspect ratio                     : 2.35:1
Frame rate                               : 23.976 fps
Color space                              : YUV
Chroma subsampling                       : 4:2:0
Bit depth                                : 8 bits
Scan type                                : Progressive
Bits/(Pixel*Frame)                       : 0.300
Stream size                              : 3.27 GiB (69%)
Title                                    : First Blood II (1985) [Ukr, Eng] 720p [Hurtom]
Writing library                          : core 59 r859M ce13bb6
Encoding settings                        : cabac=1 / ref=5 / deblock=1:-3:-2 / analyse=0x3:0x113 / me=umh / subme=6 / me-prepass=0 / brdo=1 / mixed_ref=1 / me_range=16 / chroma_me=1 / trellis=0 / 8x8dct=1 / cqm=2 / deadzone=6,3 / chroma_qp_offset=0 / threads=6 / nr=0 / decimate=1 / mbaff=0 / fgo=0 / bframes=16 / b_pyramid=1 / b_adapt=1 / b_bias=0 / direct=1 / wpredb=1 / bime=1 / keyint=250 / keyint_min=25 / scenecut=40(pre) / rc=2pass / bitrate=5011 / ratetol=4.0 / rceq='blurCplx^(1-qComp)' / qcomp=1.00 / qpmin=10 / qpmax=51 / qpstep=4 / cplxblur=20.0 / qblur=0.5 / ip_ratio=1.40 / pb_ratio=1.30 / aq=2:1.00
Language                                 : English

Audio #1
ID                                       : 2
Format                                   : AC-3
Format/Info                              : Audio Coding 3
Mode extension                           : CM (complete main)
Codec ID                                 : A_AC3
Duration                                 : 1h 35mn
Bit rate mode                            : Constant
Bit rate                                 : 448 Kbps
Channel(s)                               : 6 channels
Channel positions                        : Front: L C R, Side: L R, LFE
Sampling rate                            : 48.0 KHz
Bit depth                                : 16 bits
Compression mode                         : Lossy
Delay relative to video                  : 1s 888ms
Stream size                              : 308 MiB (6%)
Title                                    : 5.1 @ 448 kbps - двоголосий закадровий
Language                                 : Ukrainian

Audio #2
ID                                       : 3
Format                                   :
Format/Info                              : Digital Theater Systems
Codec ID                                 : A_DTS
Duration                                 : 1h 35mn
Bit rate mode                            : Constant
Bit rate                                 : 1 510 Kbps
Channel(s)                               : 6 channels
Channel positions                        : Front: L C R, Side: L R, LFE
Sampling rate                            : 48.0 KHz
Bit depth                                : 24 bits
Compression mode                         : Lossy
Stream size                              : 1.01 GiB (21%)
Title                                    : 5.1 @ 1536 kbps
Language                                 : English

Audio #3
ID                                       : 4
Format                                   : Vorbis
Format settings, Floor                   : 1
Codec ID                                 : A_VORBIS
Duration                                 : 1h 35mn
Bit rate mode                            : Variable
Bit rate                                 : 80.0 Kbps
Channel(s)                               : 2 channels
Sampling rate                            : 48.0 KHz
Compression mode                         : Lossy
Stream size                              : 54.9 MiB (1%)
Title                                    : OGG 2.0 @ 80 kbps - коментарі
Writing library                          : aoTuV b5c  (UTC 2008-12-15)
Language                                 : English

Text
ID                                       : 5
Format                                   : UTF-8
Codec ID                                 : S_TEXT/UTF8
Codec ID/Info                            : UTF-8 Plain Text
Language                                 : English
Усі наявні релізи

Завантажити:
720р Ukr/Eng | Sub Eng (19.47 GB (У складі квадрології) - двоголосий закадровий Студія 1+1 звук записано з 2+2
Ukr/Eng (7.01 GB (У складі квадрології) - двоголосий закадровий Студія 1+1

Ролі озвучили: Володимир Нечепоренко
Тривалість: 01:35:59
Якість: 720р
Відео:
кодек:
розмір кадру: 1280x544
бітрейт: 5011 кб/с
частота кадрів: 23.976 fps

Аудіо # 1:
мова: українська
переклад: двоголосий закадровий запис з 2+2 | усі чоловічі ролі озвучив Володимир Нечепоренко
кодек: 5.1
бітрейт: 448 кб/с

Аудіо # 2:
мова: анґлійська
переклад: ориґінал
кодек: 5.1
бітрейт: 1536 кб/с

Аудіо # 3:
мова: анґлійська (коментарі)
кодек: OGG 2.0
бітрейт: 80 кб/с

Субтитри :
мова: анґлійська
тип: проґрамні (м'які)
формат: *.srt

Скріншоти:


Рембо ІІІ / Rambo III (1988) 720р Ukr/Eng | Sub Eng
Рембо ІІІ / Rambo III (1988) 720р Ukr/Eng | Sub Eng




«God would have mercy John Rambo won't!»


Жанр: бойовик, пригодницький, трилер
Країна: США



Кіностудія / кінокомпанія: Carolco Pictures
Режисер: Пітер МакДоналд (Peter MacDonald)
Композитор: Джеррі Ґолдсміт (Jerry Goldsmith)
Актори: Сильвестер Сталлоне (Sylvester Stallone), Річард Кренна (Richard Crenna), Марк де Йонґ (Marc de Jonge), Картвуд Смітт (Kurtwood Smith), Сесон Ґабай (Sasson Gabai), Омар Шаріф (Omar Sharif) та інші.

Сюжет:
Ветеран в’єтнамської війни – Джон Рембо втомився від військових звитяг і оселився у будійському монастирі. Але довго насолоджуватися миром не довелося: його колишній командир потрапив у полон, і Рембо вирушає його рятувати, вступаючи у відчайдушну та нерівну сутичку з ворогом, та заразом викриваючи корумпованих американських військовиків.
Номінації, перемоги, цікаві факти

Золота малина, 1989 рік
Переможець (1):
Найгірша чоловіча роль (Сильвестр Сталоне)

Номінації (4):
Найгірший фільм
Найгірша чоловіча роль другого плану (Річард Крена)
Найгірший режисер (Пітер МакДональд)
Найгірший сценарій

Цікаві факти про фільм


• Над фільмом починав працювати Расел Малкагі, але він пішов з проекту через творчі розбіжності. Замінив його Пітер МакДональд, який в останні роки виконує обов'язки другого режисера в кіно-серіялі про Гарі Потера.
• Кінь, на якому скаче Джон Рембо, потім брав участь у зйомках картини «Індіяна Джонс і останній хрестовий похід» (1989), де на ньому їздив верхи Індіяна Джонс.
• У Книзі рекордів Ґінеса 1990 року цей фільм називається найжорстокішим за всю історію, оскільки в ньому нараховуються 221 акт насильства і понад 108 смертей.
• Сильвестр Сталоне був відзначений «Золотою малиною» за найгіршу чоловічу роль.
• На час випуску картини в прокат вона була найдорожчою за всю історію.
• Бюджет - $63,000,000.
MediaInfo

Код:
General
Unique ID                                : 194841247765937490718666297556730502111 (0x92950F316478689690D5A575E959DBDF)
Complete name                            : D:\HURTOM\Rambo. Quadrilogy (1982-1985-1988-2008) 720p [Hurtom]\Rambo III (1988) [Ukr, Eng] 720p [Hurtom].mkv
Format                                   : Matroska
Format version                           : Version 2
File size                                : 4.75 GiB
Duration                                 : 1h 41mn
Overall bit rate mode                    : Variable
Overall bit rate                         : 6 687 Kbps
Movie name                               : Rambo III (1988) [Ukr, Eng] 720p [Hurtom]
Encoded date                             : UTC 2011-11-18 12:25:03
Writing application                      : mkvmerge v5.0.1 ('Es ist Sommer') built on Oct  9 2011 11:55:43
Writing library                          : libebml v1.2.2 + libmatroska v1.3.0

Video
ID                                       : 1
Format                                   : AVC
Format/Info                              : Advanced Video Codec
Format profile                           : [email protected]
Format settings, CABAC                   : Yes
Format settings, ReFrames                : 5 frames
Codec ID                                 : V_MPEG4/ISO/AVC
Duration                                 : 1h 41mn
Bit rate                                 : 4 646 Kbps
Width                                    : 1 280 pixels
Height                                   : 544 pixels
Display aspect ratio                     : 2.35:1
Frame rate                               : 23.976 fps
Color space                              : YUV
Chroma subsampling                       : 4:2:0
Bit depth                                : 8 bits
Scan type                                : Progressive
Bits/(Pixel*Frame)                       : 0.278
Stream size                              : 3.21 GiB (68%)
Title                                    : Rambo III (1988) [Ukr, Eng] 720p [Hurtom]
Writing library                          : core 59 r859M ce13bb6
Encoding settings                        : cabac=1 / ref=5 / deblock=1:-3:-2 / analyse=0x3:0x113 / me=umh / subme=6 / me-prepass=0 / brdo=1 / mixed_ref=1 / me_range=16 / chroma_me=1 / trellis=0 / 8x8dct=1 / cqm=2 / deadzone=6,3 / chroma_qp_offset=0 / threads=6 / nr=0 / decimate=1 / mbaff=0 / fgo=0 / bframes=16 / b_pyramid=1 / b_adapt=1 / b_bias=0 / direct=1 / wpredb=1 / bime=1 / keyint=250 / keyint_min=25 / scenecut=40(pre) / rc=2pass / bitrate=4646 / ratetol=4.0 / rceq='blurCplx^(1-qComp)' / qcomp=1.00 / qpmin=10 / qpmax=51 / qpstep=4 / cplxblur=20.0 / qblur=0.5 / ip_ratio=1.40 / pb_ratio=1.30 / aq=2:1.00
Language                                 : English

Audio #1
ID                                       : 2
Format                                   : AC-3
Format/Info                              : Audio Coding 3
Mode extension                           : CM (complete main)
Codec ID                                 : A_AC3
Duration                                 : 1h 41mn
Bit rate mode                            : Constant
Bit rate                                 : 448 Kbps
Channel(s)                               : 6 channels
Channel positions                        : Front: L C R, Side: L R, LFE
Sampling rate                            : 48.0 KHz
Bit depth                                : 16 bits
Compression mode                         : Lossy
Stream size                              : 326 MiB (7%)
Title                                    : 5.1 @ 448 kbps - двоголосий закадровий
Language                                 : Ukrainian

Audio #2
ID                                       : 3
Format                                   :
Format/Info                              : Digital Theater Systems
Codec ID                                 : A_DTS
Duration                                 : 1h 41mn
Bit rate mode                            : Constant
Bit rate                                 : 1 510 Kbps
Channel(s)                               : 6 channels
Channel positions                        : Front: L C R, Side: L R, LFE
Sampling rate                            : 48.0 KHz
Bit depth                                : 24 bits
Compression mode                         : Lossy
Stream size                              : 1.07 GiB (23%)
Title                                    : 5.1 @ 1536 kbps
Language                                 : English

Audio #3
ID                                       : 4
Format                                   : Vorbis
Format settings, Floor                   : 1
Codec ID                                 : A_VORBIS
Duration                                 : 1h 41mn
Bit rate mode                            : Variable
Bit rate                                 : 80.0 Kbps
Channel(s)                               : 2 channels
Sampling rate                            : 48.0 KHz
Compression mode                         : Lossy
Stream size                              : 58.2 MiB (1%)
Title                                    : OGG 2.0 @ 80 kbps - коментарі
Writing library                          : aoTuV b5c  (UTC 2008-12-15)
Language                                 : English

Text
ID                                       : 5
Format                                   : UTF-8
Codec ID                                 : S_TEXT/UTF8
Codec ID/Info                            : UTF-8 Plain Text
Language                                 : English
Усі наявні релізи

Завантажити:
720р Ukr/Eng | Sub Eng (19.47 GB (У складі квадрології) - двоголосий закадровий Студія 1+1 звук записано з 2+2
Ukr/Eng (7.01 GB (У складі квадрології) - двоголосий закадровий Студія 1+1

Ролі озвучили: Володимир Нечепоренко
Тривалість: 01:41:40
Якість: 720p
Відео:
кодек:
розмір кадру: 1280x544
бітрейт: 4646 кб/с
частота кадрів: 23.976 fps

Аудіо # 1:
мова: українська
переклад: двоголосий закадровий запис звуку з телеканалу 2+2 | усі чоловічі ролі озвучив Володимир Нечепоренко
кодек: 5.1
бітрейт: 448 кб/с

Аудіо # 2:
мова: англійська
переклад: оригінал
кодек: 5.1
бітрейт: 1536 кб/с

Аудіо # 3:
мова: англійська (коментарі)
кодек: OGG 2.0
бітрейт: 80 кб/с

Субтитри:
мова: англійська
тип: програмні (м'які)
формат: *.srt

Скріншоти:


Рембо ІV / Rambo (2008) 720р Ukr/Eng | Sub Ukr/Eng
Рембо ІV / Rambo (2008) 720р Ukr/Eng | Sub Ukr/Eng




«Heroes never die.... They just reload.»


Жанр: пригодницький, трилер
Країна: США, Німеччина



Кіностудія / кінокомпанія: Lionsgate, Weinstein Company, The, Millennium Films
Режисери: Сильвестер Сталлоне (Sylvester Stallone)
Композитор: Браян Тайлер (Brian Tyler)
Актори: Сильвестер Сталлоне (Sylvester Stallone), Джулі Бенц (Julie Benz), Меттью Мерсден (Matthew Marsden), Ґрем МакТавіш (Graham McTavish), Рейнальдо Ґаллеґос (Reynaldo Gallegos), Пол Шульц (Paul Schulze), Меттью Вульф (Matthew Wolf) та інші.

Сюжет:
У Таїланді Джон Рембо веде групу найманців річкою Селвін до Бірманського селища, де він нещодавно висадив християнських місіонерів і дотепер від яких не було жодних звісток.
Цікаві факти

• Це перший Рембо без Річарда Кренни. У попередніх фільмах актор зіграв полковника Семюела Траутмана. У 2003-му році його не стало. Роль в четвертій частині збиралися віддати Джеймсу Броліну, проте потім полковник Траутман просто зник з сценарію.
• Сталлоне збирався зняти фільм ще до «Роккі Бальбоа». Однак в останній момент Голлівуд дав зелене світло саме легендарному боксерові, а легендарному ветеранові війни довелося кілька років почекати.
• Знімальний період: 23 лютого - 4 травня 2007.
• У фільмі було вбито 236 людей. Для порівняння в першій частині було вбито лише 1 людину, у другій - 69, а в третій - 132 людини.
• З ідеологічних причин «Рембо IV» заборонений в М'янмі. Влада країни пояснює це тим, що він є провокаційним стосовно політичного режиму держави. За сюжетом дійові особи ведуть пошук місіонерів, викрадених м'янманскіми солдатами. Військовослужбовці країни поводяться в ній жорстоко, знищують села і вбивають мирних жителів. У фільмі пролуналаа фраза: «Жити для чого-небудь або померти ні за що - це твій вибір». Тепер цю цитату студенти М'янми використовують в своїх демонстраціях і сподіваються, що американські війська втрутяться у ситуацію в країні.
• Бюджет - $50,000,000 .
MediaInfo

Код:
General
Unique ID                                : 189011999045753010587268164306893728389 (0x8E32630AA34A41F5943B84B8CB62EA85)
Complete name                            : D:\HURTOM\Rambo. Quadrilogy (1982-1985-1988-2008) 720p [Hurtom]\Rambo IV (2008) [Ukr, Eng] 720p [Hurtom].mkv
Format                                   : Matroska
Format version                           : Version 2
File size                                : 4.66 GiB
Duration                                 : 1h 31mn
Overall bit rate mode                    : Variable
Overall bit rate                         : 7 287 Kbps
Movie name                               : Rambo IV (2008) [Ukr, Eng] 720p [Hurtom]
Encoded date                             : UTC 2011-11-20 10:12:55
Writing application                      : mkvmerge v5.0.1 ('Es ist Sommer') built on Oct  9 2011 11:55:43
Writing library                          : libebml v1.2.2 + libmatroska v1.3.0
Attachment                               : Yes / Yes / Yes

Video
ID                                       : 1
Format                                   : AVC
Format/Info                              : Advanced Video Codec
Format profile                           : [email protected]
Format settings, CABAC                   : Yes
Format settings, ReFrames                : 6 frames
Format settings, GOP                     : N=1
Codec ID                                 : V_MPEG4/ISO/AVC
Duration                                 : 1h 31mn
Bit rate                                 : 5 245 Kbps
Width                                    : 1 280 pixels
Height                                   : 532 pixels
Display aspect ratio                     : 2.40:1
Frame rate                               : 23.976 fps
Color space                              : YUV
Chroma subsampling                       : 4:2:0
Bit depth                                : 8 bits
Scan type                                : Progressive
Bits/(Pixel*Frame)                       : 0.321
Stream size                              : 3.26 GiB (70%)
Title                                    : Rambo IV (2008) [Ukr, Eng] 720p [Hurtom]
Writing library                          : core 59 r859M ce13bb6
Encoding settings                        : cabac=1 / ref=6 / deblock=1:-3:-3 / analyse=0x3:0x133 / me=umh / subme=7 / me-prepass=1 / brdo=1 / mixed_ref=1 / me_range=16 / chroma_me=1 / trellis=0 / 8x8dct=1 / cqm=2 / deadzone=6,6 / chroma_qp_offset=0 / threads=6 / nr=0 / decimate=1 / mbaff=0 / fgo=6 / bframes=16 / b_pyramid=1 / b_adapt=1 / b_bias=0 / direct=1 / wpredb=1 / bime=1 / keyint=250 / keyint_min=25 / scenecut=40(pre) / rc=2pass / bitrate=5245 / ratetol=1.0 / rceq='blurCplx^(1-qComp)' / qcomp=1.00 / qpmin=10 / qpmax=51 / qpstep=4 / cplxblur=20.0 / qblur=0.5 / ip_ratio=1.40 / pb_ratio=1.18 / aq=2:1.00
Language                                 : English

Audio #1
ID                                       : 2
Format                                   : AC-3
Format/Info                              : Audio Coding 3
Mode extension                           : CM (complete main)
Codec ID                                 : A_AC3
Duration                                 : 1h 31mn
Bit rate mode                            : Constant
Bit rate                                 : 448 Kbps
Channel(s)                               : 6 channels
Channel positions                        : Front: L C R, Side: L R, LFE
Sampling rate                            : 48.0 KHz
Bit depth                                : 16 bits
Compression mode                         : Lossy
Stream size                              : 293 MiB (6%)
Title                                    : 5.1 @ 448 kbps - багатоголосий закадровий "Так Треба Продакшн" на замовлення "Аврора-фільм"
Language                                 : Ukrainian

Audio #2
ID                                       : 3
Format                                   :
Format/Info                              : Digital Theater Systems
Codec ID                                 : A_DTS
Duration                                 : 1h 31mn
Bit rate mode                            : Constant
Bit rate                                 : 1 510 Kbps
Channel(s)                               : 6 channels
Channel positions                        : Front: L C R, Side: L R, LFE
Sampling rate                            : 48.0 KHz
Bit depth                                : 24 bits
Compression mode                         : Lossy
Stream size                              : 988 MiB (21%)
Title                                    : 5.1 @ 1536 kbps
Language                                 : English

Audio #3
ID                                       : 4
Format                                   : Vorbis
Format settings, Floor                   : 1
Codec ID                                 : A_VORBIS
Duration                                 : 1h 31mn
Bit rate mode                            : Variable
Bit rate                                 : 80.0 Kbps
Channel(s)                               : 2 channels
Sampling rate                            : 48.0 KHz
Compression mode                         : Lossy
Stream size                              : 52.4 MiB (1%)
Title                                    : Vorbis 2.0 @ 80 Kbps - commentary Sylvester Stallone
Writing library                          : libVorbis 1.2 (UTC 2007-06-22)
Language                                 : English
Writing application                      : Made with BeSweet v1.5b31
Encoded_Application/Url                  : http://DSPguru.doom9.org

Text #1
ID                                       : 5
Format                                   : UTF-8
Codec ID                                 : S_TEXT/UTF8
Codec ID/Info                            : UTF-8 Plain Text
Language                                 : Ukrainian

Text #2
ID                                       : 6
Format                                   : ASS
Codec ID                                 : S_TEXT/ASS
Codec ID/Info                            : Advanced Sub Station Alpha
Compression mode                         : Lossless
Language                                 : English
Усі наявні релізи

Завантажити:
720р Ukr/Eng | Sub Ukr/Eng (19.47 GB (У складі квадрології) - багатоголосий закадровий Так Треба Продакшн на замовлення Аврора-фільм
Ukr/Eng (7.01 GB (У складі квадрології) - багатоголосий закадровий Так Треба Продакшн на замовлення Аврора-фільм
Ukr/Eng (1.45 GB) - багатоголосий закадровий Так Треба Продакшн на замовлення Аврора-фільм

Ролі озвучили: Сільвестер Сталлоне/Джон Рембо - Олег Стальчук
Тривалість: 01:31:31
Якість: 720p (CtrlHD)
Відео:
кодек:
розмір кадру: 1280x532
бітрейт: 5245 кб/с
частота кадрів: 23.976 fps

Аудіо # 1:
мова: українська
переклад: багатоголосий закадровий Так Треба Продакшн на замовлення "Аврора-фільм"
кодек: 5.1
бітрейт: 448 кб/с

Аудіо # 2:
мова: англійська
переклад: ориґінал
кодек: 5.1
бітрейт: 1536 кб/с

Аудіо # 3:
мова: анґлійська (коментарі Сильвестра Сталоне)
кодек: OGG 2.0
бітрейт: 80 кб/с

Субтитри # 1:
мова: українська
тип: проґрамні (м'які)
формат: *.srt
джерело субтитрів: DVD, редаґування w2958l

Субтитри # 2:
мова: англійська
тип: проґрамні (м'які)
формат: *.ass

Скріншоти:



Подяки:
За синхронізацію доріжок 5.1 до 1/2/3 частин з нової трансляції _oles-у,
за синхронізацію доріжки 5.1 до 4 частини robotron005,
за надані сирі доріжки karvai0, xslim-у, Romario_O і Merdiff'у,
за наданий ріп до 4 частини leroykendall-у,
за допомогу в технічних питаннях Lan-y


Джерело:
Особиста оцінка: 10 - без зайвих вагань рекомендую всім!


Срібний реліз (на рейтинг впливає 50% завантаженого)
 Трекер:    Зареєстрований   

Завантажити / скачати фільм українською



відео для новачків



 Зареєстрований:   2011-11-29 00:24
 Розмір:   19.47 GB 
 Оцінка фільму:   9.1/10 (Голосів: 45)
   
Інші релізи
lom5 
Частий відвідувач


З нами з: 29.03.12
Востаннє: 17.02.14
Повідомлень: 26

2013-06-01 17:20  
можете зробити в 1080p
VinnOl 
Новенький


З нами з: 21.04.11
Востаннє: 09.12.16
Повідомлень: 5

2013-08-24 13:56  
Рембо ІV відкрити неможливо. Прикро. Sad (1)
leroykendall 
Модератор HD


З нами з: 03.01.11
Востаннє: 20.11.16
Повідомлень: 749

2013-08-24 18:23  
VinnOl написано:
Рембо ІV відкрити неможливо. Прикро. Sad (1)

В мене все гаразд. Пробував на декількох плеєрах.

VinnOl 
Новенький


З нами з: 21.04.11
Востаннє: 09.12.16
Повідомлень: 5

2013-09-13 10:38  
leroykendall
Ну, що ж, спробую ще раз скачати. А використовую KMPlayer 3-6-0-85.

don pedro 
Попереджень: 1
Попереджень: 1 


З нами з: 29.06.11
Востаннє: 09.12.16
Повідомлень: 8769

2013-12-22 02:03  
Найкращі - перша і, як не дивно, четверта частини. Решту можна було б не знімати. 2-3 частини - сміття, яке зараз (особлива третій фільм) виглядає дивно і смішно.

Додано через 19 хвилин 51 секунду:

Сподіваюсь, серію завершать поверненням Рембо у США. Я б зробив це так: Джон Рембо повертається на батьківську ферму десь у глушині (як у кінці четвертого фільму). Там господарює його молодший брат (племінник). Хоч Рембо йому й не подобається, він приймає родича. Рембо працює у кузні/ловить рибу. Його вважають диваком та уникають ветерана. На Батьківщині ГГ відчуває себе ізгоєм, думає тікати назад до Азії (у Бірмі вже немає диктатури). Його зупиняє тільки нове кохання (це щобю дівчатам було не зовсім огидно дивитись). Також він дружить з дуже молодим ветераном інвалідом-колясочником бушівсько-обамівських війн (нещасним, але добрим хлопцем) і якимись дітьми (своїми малолітніми родичами). Відвідує могили загиблих у В'єтнамі соратників та просто померлих за час його відсутності друзів.

Ситуація змінюється, коли десь в околиці з'являються вороги - наркоторгівці/терористи/криваві маніняки. Або хтось з минулого самого Джона Рембо. Гине його друг-нівалід та молодший брат/племінник. Можна пожертвувати й коханою. З іншого боку, вона може виявитись і у таборі ворогів, і Джон Рембо вбиває її власноруч.Рембо перемагає ворогів, але пафосно гине, рятуючи дітей. Йому ставлять пам'ятник у дворі школи, у яку він колись ходив.

Якось так.

Це було б достойне і не смішне закінчення серії. Оскільки у Сталлоне (на відміну від Брюса Вілліса) є хоча б мінімальне відчуття власної гідності, я сподіваюсь кінцівка буде схожою на мою ідею, а не на останнього "Горішка".

defman 
Новенький


З нами з: 18.12.12
Востаннє: 26.11.16
Повідомлень: 7

2013-12-22 23:33  
don pedro написано:
Найкращі - перша і, як не дивно, четверта частини. Решту можна було б не знімати. 2-3 частини - сміття, яке зараз (особлива третій фільм) виглядає дивно і смішно.


Ви навіть не чули про трилогію книг по яким знімалися фільми... Не бачу нічого дивного і смішного.

don pedro 
Попереджень: 1
Попереджень: 1 


З нами з: 29.06.11
Востаннє: 09.12.16
Повідомлень: 8769

2013-12-23 00:06  
defman
Чув і читав їх ще років 20 тому, ті незабутні піратські видання на жовтому газетному папері. Книги 2-3 Девіда Моррела про Рембо непогані, але тільки перша з них - шедевр. Там, до речі, все набагато жорсткіше, аніж показано у фільмі. А продовження можна було б і не писати. Та й не знімати.

А ваша впевненість в тому, про що я чувчи не чув, щиро мене розвеселилаHappy

don pedro 
Попереджень: 1
Попереджень: 1 


З нами з: 29.06.11
Востаннє: 09.12.16
Повідомлень: 8769

2015-01-08 21:28  
Всім "ремболюбам"! БУДЕ П'ЯТА ЧАСТИНА! Називається "Остання кров". Більше про це:

http://screenrant.com/rambo-5-title-last-blood-sylvester-stallone-2015-creed/

та "Твіттер" самого Сталоне:

https://twitter.com/TheSlyStallone?original_referer=http%3A%2F%2Fscreenrant.com%2Frambo-5-title-last-blood-sylvester-stallone-2015-creed%2F&tw_i=549319789953290240&tw_p=tweetembed

Головне, щоб це була таки остання частинаHappy

Ua.bos_01 
VIP


З нами з: 22.06.15
Востаннє: 06.12.16
Повідомлень: 1291

2015-08-19 09:09  
Цитата:
Всім "ремболюбам"! БУДЕ П'ЯТА ЧАСТИНА
Охо-хо-хо! Це в біса чудова новина! :-)
santialeks 
Свій


З нами з: 22.04.12
Востаннє: 08.12.16
Повідомлень: 73

2015-08-19 17:37  
Згадав дитинство, сів і передивився Джона Рембо. Як же ж гарно він клав штабелями ворогів. Влучність майже 100%. Ото машина для вбивств. Обожнюю бойовики 90-х.
Purdun 
Свій


З нами з: 05.09.13
Востаннє: 29.08.16
Повідомлень: 82

2016-04-08 08:51  
А з озвучкою ICTV не робитимете?
Віктор 
Відео Гуртом - субтитрування
Відео Гуртом - субтитрування


З нами з: 09.01.10
Востаннє: 09.12.16
Повідомлень: 8663

2016-04-08 10:44  
Purdun написано:
А з озвучкою ICTV не робитимете?

Гівняний переклад додавати не бажаю.

neposeda 
Новенький


З нами з: 01.08.12
Востаннє: 09.11.16
Повідомлень: 1

2016-04-09 07:59  
качну
_sergius 
Свій


З нами з: 26.03.11
Востаннє: 07.12.16
Повідомлень: 66

2016-05-01 10:12  
santialeks написано:
Згадав дитинство, сів і передивився Джона Рембо. Як же ж гарно він клав штабелями ворогів. Влучність майже 100%. Ото машина для вбивств. Обожнюю бойовики 90-х.

+1
Бойовики кінця 80-х - початку 90-х - це навіть окремий жанр.

don pedro написано:
Всім "ремболюбам"! БУДЕ П'ЯТА ЧАСТИНА! Називається "Остання кров".

Супер! Будемо чекати.

MrRyanCooper 
VIP


З нами з: 23.08.12
Востаннє: 08.12.16
Повідомлень: 282

2016-05-01 16:03  
Віктор написано:
Гівняний переклад додавати не бажаю.

Чим же він гівняний?

Віктор 
Відео Гуртом - субтитрування
Відео Гуртом - субтитрування


З нами з: 09.01.10
Востаннє: 09.12.16
Повідомлень: 8663

2016-05-01 16:34  
MrRyanCooper написано:
Чим же він гівняний?

Пояснювати це людині в якої у кожному повідомлені купа граматичних помилок - немає сенсу.

MrRyanCooper написано:
Запишіть хтось будь-ласка.
http://toloka.to/t66356#802848
MrRyanCooper написано:
Нажаль ICTV після
http://toloka.to/t70302#793825
Ваш часовий пояс: GMT + 2 Години

Нова тема   Відповісти