Завантажити та скачати торренти українською


Дюплекс / Duplex (2003) 720p

Нові коментарі

Нова тема   Відповісти
Автор Повідомлення
Zeus62 
Відео Гуртом - команда HD
Відео Гуртом - команда HD


З нами з: 29.12.08
Востаннє: 16.11.16
Повідомлень: 330

2011-11-29 00:14  
Дюплекс / Duplex (2003) 720p



Жанр: комедія
Країна: США, Німеччина



Кіностудія / кінокомпанія: Miramax Films
Режисер: Денні ДеВіто
Актори: Бен Стіллер, Дрю Беррімор, Ейлін Есселл, Харвей Фаєрштайн, Роберт Вісдом

Сюжет:
Молоде подружжя, Алекс та Ненсі, після довгих пошуків окремого житла, натрапляють на непогану пропозицію: їм пропонують гарний будинок у Брукліні, та ще й доволі дешево. Ну хто ж втримається перед такою спокусою? І все було б добре, якби не одне "але": на другому поверсі того будиночку проживає старенька квартирантка, яку за законом неможливо виселити. І попри більш ніж поважний вік, та бабуся виявилася досить жвавою жіночкою, своєю надмірною цікавістю та непосидючістю, вона дуже скоро покаже молодятам справжню ціну їхньої мрії...


Тривалість: 01:29:09
Якість:
Відео:
кодек:
розмір кадру: 1280 х 720
бітрейт: 6722 кб/с

Аудіо:
мова: українська
переклад: багатоголосий закадровий
кодек: 5.1
бітрейт: 448 кб/с
MediaInfo
Format : Matroska
File size : 4.47 GiB
Duration : 1h 29mn
Overall bit rate : 7 169 Kbps
Encoded date : UTC 2011-11-28 21:39:07
Writing application : mkvmerge v4.9.1 ('Ich will') зібрано Jul 23 2011 09:44:16
Writing library : libebml v1.2.1 + libmatroska v1.1.1

Video
ID : 1
Format : AVC
Format/Info : Advanced Video Codec
Format profile : [email protected]
Format settings, CABAC : Yes
Format settings, ReFrames : 4 frames
Muxing mode : Header stripping
Codec ID : V_MPEG4/ISO/AVC
Duration : 1h 29mn
Bit rate : 6 722 Kbps
Width : 1 280 pixels
Height : 720 pixels
Display aspect ratio : 16:9
Frame rate mode : Variable
Frame rate : 23.976 fps
Color space : YUV
Chroma subsampling : 4:2:0
Bit depth : 8 bits
Scan type : Progressive
Bits/(Pixel*Frame) : 0.304
Stream size : 4.10 GiB (92%)
Writing library : core 112
Encoding settings : cabac=1 / ref=2 / deblock=1:0:0 / analyse=0x1:0x111 / me=hex / subme=6 / psy=1 / psy_rd=1,00:0,00 / mixed_ref=0 / me_range=16 / chroma_me=1 / trellis=0 / 8x8dct=0 / cqm=0 / deadzone=21,11 / fast_pskip=1 / chroma_qp_offset=-2 / threads=9 / sliced_threads=0 / nr=0 / decimate=1 / interlaced=0 / constrained_intra=0 / bframes=2 / b_pyramid=2 / b_adapt=1 / b_bias=0 / direct=1 / weightb=0 / open_gop=0 / weightp=2 / keyint=240 / keyint_min=23 / scenecut=40 / intra_refresh=0 / rc_lookahead=40 / rc=2pass / mbtree=1 / bitrate=6722 / ratetol=1,0 / qcomp=0,60 / qpmin=3 / qpmax=51 / qpstep=4 / cplxblur=20,0 / qblur=0,5 / ip_ratio=1,40 / aq=1:1,00
Language : English
Color primaries : BT.709-5, BT.1361, IEC 61966-2-4, SMPTE RP177
Transfer characteristics : BT.709-5, BT.1361
Matrix coefficients : BT.709-5, BT.1361, IEC 61966-2-4 709, SMPTE RP177

Audio
ID : 2
Format : AC-3
Format/Info : Audio Coding 3
Mode extension : CM (complete main)
Muxing mode : Header stripping
Codec ID : A_AC3
Duration : 1h 29mn
Bit rate mode : Constant
Bit rate : 448 Kbps
Channel(s) : 6 channels
Channel positions : Front: L C R, Side: L R, LFE
Sampling rate : 48.0 KHz
Bit depth : 16 bits
Compression mode : Lossy
Delay relative to video : 1s 0ms
Stream size : 286 MiB (6%)
Language : Ukrainian
Скріншоти:

Джерело: Власний ріп +
Особиста оцінка: 10 - без зайвих вагань рекомендую всім!


Срібний реліз (на рейтинг впливає 50% завантаженого)
 Трекер:    Зареєстрований   

Завантажити / скачати фільм українською



відео для новачків



 Зареєстрований:   2011-11-29 00:14
 Розмір:   4.47 GB 
 Оцінка фільму:   9.7/10 (Голосів: 14)
   
Інші релізи
   Дюплекс / Duplex (2003) 2xUkr/Eng Arsenfpu  2 / 0   1.7 GB   2016-10-04 20:04 
   Дюплекс / Duplex (2003) AngryBirdsUA  1 / 0   1.45 GB   2013-04-10 22:12 
   Дюплекс / Duplex (2003) Ukr/Eng Givi  2 / 0   1.57 GB   2009-07-08 21:26 
Сергей Колбаскин 
Новенький


З нами з: 24.02.12
Востаннє: 21.02.14
Повідомлень: 1

2013-01-10 20:24  
Надто веселий моментус коли старушачий оркестр лагодиться репетирувати)
SHEVA1991 
Поважний учасник


З нами з: 29.11.12
Востаннє: 03.12.16
Повідомлень: 200

2015-12-27 16:42  
Класна комедія. раджу всім, хто не бачив)))
hellrider88 
Новенький


З нами з: 13.01.16
Востаннє: 16.01.16
Повідомлень: 2

2016-01-13 15:37  
Дайте швидкості!
hellrider88 
Новенький


З нами з: 13.01.16
Востаннє: 16.01.16
Повідомлень: 2

2016-01-16 12:15  
Зависло на 95 %(
Ваш часовий пояс: GMT + 2 Години

Нова тема   Відповісти