Завантажити та скачати торренти українською


Відчайдушний / Desperado (1995) 720p 3xUkr/Eng | Sub Eng

Нові коментарі

Нова тема   Відповісти
Автор Повідомлення
leroykendall 
Модератор HD


З нами з: 03.01.11
Востаннє: 20.11.16
Повідомлень: 749

2011-11-28 00:17  
Відчайдушний / Desperado (1995) 720p 3xUkr/Eng | Sub Eng




«When the smoke clears, it just means he's reloading.»


Жанр: бойовик, триллер, кримінал
Країна: США





Кіностудія / кінокомпанія: Columbia Pictures Corporation | Los Hooligans Productions
Режисер: Роберт Родріґес (Robert Rodriguez)
Актори: Антоніо Бандерас (Antonio Banderas), Сальма Хайєк (Salma Hayek), Жоакім ді Алмейда (Joaquim de Almeida), Чіч Марин (Cheech Marin), Стів Бушемі (Steve Buscemi), Карлос Гомес (Carlos Gomez), Квентін Тарантіно (Quentin Tarantino), Тіто Ларріва (Tito Larriva), Энджел Авілес (Angel Aviles), Денні Трехо (Danny Trejo)

Сюжет:
Він - безстрашний герой, який полює на короля злочинного світу. Але - виконати вирок неможливо, бо знову на карту поставлено життя коханої, і розпочинається жорстоке протистояння одинака і армії озброєних до зубів головорізів.
Фото акторів


Цікаві факти
  • Денні Трехо за весь фільм не сказав жодної фрази.
  • Багато акторів, які зіграли другорядних персонажів, знімались також в інших фільмах Роберта Родріґеса.
  • В епізоді, де Кароліна розглядає вміст гітарного футляра, вона знаходить розкладний револьвер з майбутньої роботи Родріґеса "Від заходу до світанку".
MediaInfo

General
Complete name : W:\Desperado.1995.720p\Desperado (1995) [3xUkr, Eng] 720p [Hurtom] by leroykendall.mkv
Format : Matroska
File size : 7.16 GiB
Duration : 1h 44mn
Overall bit rate : 9 808 Kbps
Movie name : Desperado (1995) [Ukr, Eng] 720p [Hurtom] by leroykendall
Encoded date : UTC 2011-11-27 16:42:18
Writing application : mkvmerge v4.9.1 ('Ich will') зібрано Jul 11 2011 23:53:15
Writing library : libebml v1.2.1 + libmatroska v1.1.1

Video
ID : 1
Format : AVC
Format/Info : Advanced Video Codec
Format profile : [email protected]
Format settings, CABAC : Yes
Format settings, ReFrames : 9 frames
Muxing mode : Container [email protected]
Codec ID : V_MPEG4/ISO/AVC
Duration : 1h 44mn
Bit rate : 5 746 Kbps
Nominal bit rate : 5 947 Kbps
Width : 1 280 pixels
Height : 692 pixels
Display aspect ratio : 1.850
Frame rate : 23.976 fps
Resolution : 24 bits
Colorimetry : 4:2:0
Scan type : Progressive
Bits/(Pixel*Frame) : 0.271
Stream size : 4.19 GiB (59%)
Title : Desperado.1995.Bluray.720p..-CHD
Writing library : core 102 r1666 d058f37
Encoding settings : cabac=1 / ref=9 / deblock=1:-3:-3 / analyse=0x3:0x113 / me=umh / subme=10 / psy=1 / psy_rd=1.05:0.10 / mixed_ref=1 / me_range=32 / chroma_me=1 / trellis=2 / 8x8dct=1 / cqm=2 / deadzone=21,11 / fast_pskip=0 / chroma_qp_offset=-2 / threads=6 / sliced_threads=0 / nr=0 / decimate=1 / interlaced=0 / constrained_intra=0 / bframes=6 / b_pyramid=2 / b_adapt=2 / b_bias=0 / direct=3 / weightb=1 / open_gop=0 / weightp=2 / keyint=250 / keyint_min=25 / scenecut=40 / intra_refresh=0 / rc_lookahead=40 / rc=2pass / mbtree=1 / bitrate=5947 / ratetol=1.0 / qcomp=0.60 / qpmin=10 / qpmax=51 / qpstep=4 / cplxblur=20.0 / qblur=0.5 / vbv_maxrate=50000 / vbv_bufsize=50000 / ip_ratio=1.40 / aq=1:0.80 / nal_hrd=none

Audio #1
ID : 2
Format :
Format/Info : Digital Theater Systems
Codec ID : A_DTS
Duration : 1h 44mn
Bit rate mode : Constant
Bit rate : 1 510 Kbps
Channel(s) : 6 channels
Channel positions : Front: L C R, Surround: L R, LFE
Sampling rate : 48.0 KHz
Resolution : 16 bits
Video delay : 65ms
Stream size : 1.10 GiB (15%)
Title : 5.1 @ 1536 kbps - Новий канал
Language : Ukrainian

Audio #2
ID : 3
Format : AC-3
Format/Info : Audio Coding 3
Codec ID : A_AC3
Duration : 1h 44mn
Bit rate mode : Constant
Bit rate : 384 Kbps
Channel(s) : 6 channels
Channel positions : Front: L C R, Surround: L R, LFE
Sampling rate : 48.0 KHz
Video delay : 1s 450ms
Stream size : 287 MiB (4%)
Title : 5.1 @ 384 kbps - К1 та Україна
Language : Ukrainian

Audio #3
ID : 4
Format : AC-3
Format/Info : Audio Coding 3
Codec ID : A_AC3
Duration : 1h 44mn
Bit rate mode : Constant
Bit rate : 384 Kbps
Channel(s) : 6 channels
Channel positions : Front: L C R, Surround: L R, LFE
Sampling rate : 48.0 KHz
Video delay : 1s 450ms
Stream size : 287 MiB (4%)
Title : 5.1 @ 384 kbps - Мова
Language : Ukrainian

Audio #4
ID : 5
Format :
Format/Info : Digital Theater Systems
Codec ID : A_DTS
Duration : 1h 44mn
Bit rate mode : Constant
Bit rate : 1 510 Kbps
Channel(s) : 6 channels
Channel positions : Front: L C R, Surround: L R, LFE
Sampling rate : 48.0 KHz
Resolution : 24 bits
Stream size : 1.10 GiB (15%)
Title : 5.1 @ 1536 kbps

Audio #5
ID : 6
Format : Vorbis
Format settings, Floor : 1
Codec ID : A_VORBIS
Duration : 1h 44mn
Bit rate mode : Constant
Bit rate : 80.0 Kbps
Channel(s) : 2 channels
Sampling rate : 48.0 KHz
Resolution : 16 bits
Stream size : 59.8 MiB (1%)
Title : Commentary Vorbis 2.0 80 kbps
Writing library : aoTuV b5d (UTC 2009-03-01)

Text
ID : 7
Format : UTF-8
Codec ID : S_TEXT/UTF8
Codec ID/Info : UTF-8 Plain Text

Menu
00:00:00.000 : en:00:00:00.000
00:11:03.913 : en:00:11:03.913
00:15:41.149 : en:00:15:41.149
00:18:59.930 : en:00:18:59.930
00:29:20.842 : en:00:29:20.842
00:41:33.491 : en:00:41:33.491
00:45:30.353 : en:00:45:30.353
00:48:26.946 : en:00:48:26.946
00:51:59.366 : en:00:51:59.366
00:56:18.083 : en:00:56:18.083
01:03:51.786 : en:01:03:51.786
01:12:59.292 : en:01:12:59.292
01:17:30.062 : en:01:17:30.062
01:24:51.837 : en:01:24:51.837
01:32:33.131 : en:01:32:33.131
01:38:15.139 : en:01:38:15.139
Тривалість: 01:44:30
Якість: 720p (ріп від: CHD)
Відео:
кодек:
розмір кадру: 1280x692
бітрейт: 5947 кб/с

Аудіо # 1:
мова: українська
переклад: двоголосий закадровий (Новий канал )
кодек: 5.1
бітрейт: 1536 кб/с

Аудіо # 2:
мова: українська
переклад: багатоголосий закадровий (студія Так Треба Продакшн)
кодек: 5.1
бітрейт: 384 кб/с

Аудіо # 3:
мова: українська
переклад: багатоголосий закадровий (студія Мова)
кодек: 5.1
бітрейт: 384 кб/с

Аудіо # 4:
мова: англійська
переклад: оригінал
кодек: 5.1
бітрейт: 1536 кб/с

Аудіо # 5:
мова: англійська (коментарі)
кодек: Vorbis 2.0
бітрейт: 80 кб/с

Субтитри# 1:
мова: англійська
тип: програмні (м'які)
формат: *.srt

Скріншоти :






Подяки
SweetN та Merdiff за запис з ТБ
realnitro за українізацію постера
Romario_O за еталонний реліз



Джерело: та

Особиста оцінка: 10 - класний напружний бойовик


Срібний реліз (на рейтинг впливає 50% завантаженого)
 Трекер:    Зареєстрований   

Завантажити / скачати фільм українською



відео для новачків



 Зареєстрований:   2011-11-28 00:17
 Розмір:   7.16 GB 
 Оцінка фільму:   8.7/10 (Голосів: 7)
   
Інші релізи
   Відчайдушний / Desperado (1995) 2xUkr/Eng | Sub Eng Romario_O  4 / 1   1.73 GB   2009-12-08 18:42 
Віктор 
Відео Гуртом - субтитрування
Відео Гуртом - субтитрування


З нами з: 09.01.10
Востаннє: 05.12.16
Повідомлень: 8663

2011-11-28 00:26  
leroykendall написано:
Джерело: та
інше, все ж таки 1-а доріжка з HDClub і не вказати про це гріх Happy а за реліз дякую. Чудовий вибір доріжок. Як буде можливість зроби, будь ласка, семпл з усіма трьома доріжками.

Додано через 1 хвилину 28 секунд:

А можу сказати одразу
leroykendall написано:

Аудіо # 2:
мова: українська


озвучка від Так Треба Продакшн

robotron005 
Відео Гуртом - фільмокрай
Відео Гуртом - фільмокрай


З нами з: 29.01.09
Востаннє: 06.12.16
Повідомлень: 2986

2011-11-28 00:32  
прохання поділитись доріжкою з Нового каналу =)
leroykendall 
Модератор HD


З нами з: 03.01.11
Востаннє: 20.11.16
Повідомлень: 749

2011-11-28 01:16  
w2958l написано:
інше, все ж таки 1-а доріжка з HDClub і не вказати про це гріх

Все ти знаєш :-) Так правда взяв з HDClub'у, але думав що вона була на БлюРей тому не став вказувати. Виправив.

w2958l написано:

Аудіо # 2:
мова: українська

озвучка від Так Треба Продакшн

Виправив. Дякую!

Додано через 8 хвилин 56 секунд:

robotron005 написано:
прохання поділитись доріжкою з Нового каналу =)

Будь ласка: Desperado.Novyi_Kanal.UKR.

Додано через 31 хвилину 57 секунд:

w2958l написано:
Як буде можливість зроби, будь ласка, семпл з усіма трьома доріжками.

Будь ласка:
Семпл 1
Семпл 2

Віктор 
Відео Гуртом - субтитрування
Відео Гуртом - субтитрування


З нами з: 09.01.10
Востаннє: 05.12.16
Повідомлень: 8663

2011-11-28 12:44  
В озвученні від нового швидше за все двоголоска впізнав Михайла Жоніна.
leroykendall 
Модератор HD


З нами з: 03.01.11
Востаннє: 20.11.16
Повідомлень: 749

2011-11-28 12:55  
w2958l
Я там впізнав 2 чоловічі голоси. І напевно що повинен також бути жіночій, але не впевнейний. Ввечері точно скажу.

Віктор 
Відео Гуртом - субтитрування
Відео Гуртом - субтитрування


З нами з: 09.01.10
Востаннє: 05.12.16
Повідомлень: 8663

2011-11-28 22:09  
leroykendall написано:
Я там впізнав 2 чоловічі голоси.І напевно що повинен також бути жіночій

Двоголоска точно. Прослухав он-лайн на ексюа. Усі чоловічі Михайло Жонін

leroykendall 
Модератор HD


З нами з: 03.01.11
Востаннє: 20.11.16
Повідомлень: 749

2011-11-28 22:23  
w2958l написано:
Двоголоска точно. Прослухав он-лайн на ексюа. Усі чоловічі Михайло Жонін

Так. Напевно що ти правий. Виправив на "двоголосий закадровий". Дякую!

waldi-hurtom 
VIP


З нами з: 07.10.12
Востаннє: 05.12.16
Повідомлень: 611

2013-02-10 21:25  
Слабенький фільм. Дитячий. На трійочку. Можу порадити хіба що фанаткам Бандероса.
boroznaya 
VIP


З нами з: 02.11.12
Востаннє: 06.12.16
Повідомлень: 1872

2015-03-02 13:36  
Фільм так собі, глянути можна! Продовження його "Якось у Мексиці" цікавіше, зуб даю!
Ваш часовий пояс: GMT + 2 Години

Нова тема   Відповісти