Завантажити та скачати торренти українською


Один день / One Day (2011) AVC Ukr/Eng

Нові коментарі

Нова тема   Відповісти
Автор Повідомлення
Anonymous 







2011-11-27 09:58  
Один день / One Day (2011) AVC Ukr/Eng



Жанр: драма, романтичний , мелодрама
Країна: США



Кіностудія / кінокомпанія: Color Force, Film Four, Random House Films
Режисер: Лоне Шерфіґ
Актори: Ен Хетеуей, Джим Старгес, Том Місон, Джолі Уайттакер, Тім Кі

Сюжет:
Емма - романтична, гостра на язик і хоче змінити світ на краще. Декстер - плейбой, улюбленець долі і хоче, щоб світ належав йому. Вперше Ем і Декс зустрілися 15 липня на випускному в коледжі і провели разом лише один день. А потім прийшла ніч, і вони... вирішили залишитися друзями. Вони будуть зустрічатися в той же день через рік, через два. Але скільки років має пройти, щоб вони повірили в свою любов і зрозуміли, як багато значив для них цей ОДИН ДЕНЬ?


Тривалість: 01:47:28
Якість:
Відео:
кодек:
розмір кадру: 1024x436
бітрейт: 1133 кб/с

Аудіо # 1:
мова: українська
переклад: багатоголосий закадровий
кодек: 5.1
бітрейт: 448 кб/с

Аудіо # 2:
мова: англійська
переклад: оригінал
кодек: 2.0
бітрейт: 192 кб/с

Джерело озвучення:


Скріншоти:




MediaInfo
General
Unique ID : 201107093220201836177330198845553947992 (0x974BD139AA3564CE87C7603D8620B558)
Complete name : M:\Video\Фільми\One Day (2011) AVC Ukr,Eng [Hurtom] by Vasua95.mkv
Format : Matroska
Format version : Version 2
File size : 1.33 GiB
Duration : 1h 47mn
Overall bit rate : 1 771 Kbps
Movie name : Один день / One Day (2011) AVC - firebit.org
Encoded date : UTC 2011-11-27 07:28:50
Writing application : mkvmerge v4.9.1 ('Ich will') зібрано Jul 11 2011 23:53:15
Writing library : libebml v1.2.1 + libmatroska v1.1.1

Video
ID : 1
Format : AVC
Format/Info : Advanced Video Codec
Format profile : [email protected]
Format settings, CABAC : Yes
Format settings, ReFrames : 8 frames
Muxing mode : Header stripping
Codec ID : V_MPEG4/ISO/AVC
Duration : 1h 47mn
Bit rate : 1 133 Kbps
Width : 1 024 pixels
Height : 436 pixels
Display aspect ratio : 2.35:1
Frame rate : 23.976 fps
Color space : YUV
Chroma subsampling : 4:2:0
Bit depth : 8 bits
Scan type : Progressive
Bits/(Pixel*Frame) : 0.106
Stream size : 842 MiB (62%)
Writing library : core 116 r2074 2641b9e
Encoding settings : cabac=1 / ref=8 / deblock=1:-2:-2 / analyse=0x3:0x133 / me=umh / subme=11 / psy=1 / psy_rd=1.13:0.13 / mixed_ref=1 / me_range=16 / chroma_me=1 / trellis=2 / 8x8dct=1 / cqm=0 / deadzone=21,11 / fast_pskip=1 / chroma_qp_offset=-3 / threads=12 / sliced_threads=0 / nr=0 / decimate=1 / interlaced=0 / bluray_compat=0 / constrained_intra=0 / bframes=3 / b_pyramid=2 / b_adapt=2 / b_bias=0 / direct=3 / weightb=1 / open_gop=0 / weightp=2 / keyint=250 / keyint_min=2 / scenecut=40 / intra_refresh=0 / rc_lookahead=60 / rc=2pass / mbtree=1 / bitrate=1133 / ratetol=1.0 / qcomp=0.60 / qpmin=10 / qpmax=51 / qpstep=4 / cplxblur=20.0 / qblur=0.5 / vbv_maxrate=22000 / vbv_bufsize=22000 / nal_hrd=none / ip_ratio=1.40 / aq=1:1.00
Language : English

Audio #1
ID : 2
Format : AC-3
Format/Info : Audio Coding 3
Mode extension : CM (complete main)
Muxing mode : Header stripping
Codec ID : A_AC3
Duration : 1h 47mn
Bit rate mode : Constant
Bit rate : 448 Kbps
Channel(s) : 6 channels
Channel positions : Front: L C R, Side: L R, LFE
Sampling rate : 48.0 KHz
Bit depth : 16 bits
Compression mode : Lossy
Stream size : 344 MiB (25%)
Language : Ukrainian

Audio #2
ID : 3
Format : AC-3
Format/Info : Audio Coding 3
Mode extension : CM (complete main)
Muxing mode : Header stripping
Codec ID : A_AC3
Duration : 1h 47mn
Bit rate mode : Constant
Bit rate : 192 Kbps
Channel(s) : 2 channels
Channel positions : Front: L R
Sampling rate : 48.0 KHz
Bit depth : 16 bits
Compression mode : Lossy
Stream size : 148 MiB (11%)
Language : English
Джерело: &
Особиста оцінка: 9 - давно не бачив настільки якісне кіно


 Трекер:    Зареєстрований   

Завантажити / скачати фільм українською



відео для новачків



 Зареєстрований:   2011-11-27 09:58
 Розмір:   1.33 GB 
 Оцінка фільму:   8.1/10 (Голосів: 34)
   
Інші релізи
   Один день / One Day (2011) 3xUkr/Eng Arsenfpu  1 / 0   2.29 GB   2016-05-19 21:26 
   Один день / One Day (2011) 720p 2xUkr/Eng | Sub Eng Dim-ON  2 / 0   6.12 GB   2013-11-29 23:02 
soleru 
Відео Гуртом - підтримка та поширення
Відео Гуртом - підтримка та поширення


З нами з: 06.10.11
Востаннє: 11.04.16
Повідомлень: 192

2011-11-27 11:47  
Почніть роздачу!!!!!!!
Algerian 
Частий відвідувач


З нами з: 02.06.09
Востаннє: 04.07.15
Повідомлень: 35

2011-12-11 13:01  
як фільм ? які враження ? )
jksenjak 
Новенький


З нами з: 04.02.12
Востаннє: 11.08.13
Повідомлень: 1

2012-02-26 12:57  
Фільм класний!!! Раджу подивитись )
zaika 
VIP


З нами з: 01.07.12
Востаннє: 09.12.16
Повідомлень: 953

2016-06-01 08:12  
Який жорстокий фільм, особливо як для жінки-режисера. А так гарно починався. Ен Хетеуей дуже мила.
9/10.

Andrij1971 
Новенький


З нами з: 19.07.14
Востаннє: 06.12.16
Повідомлень: 15

2016-06-04 10:10  
цього формату мій ТВ не відкрив, хоча такий формат відкривав без проблем
Ваш часовий пояс: GMT + 2 Години

Нова тема   Відповісти