Завантажити та скачати торренти українською


Танґо і Кеш / Tango and Cash / Tango & Cash (1989) 720p Ukr/Eng | Sub Eng

Нові коментарі

Нова тема   Відповісти
Автор Повідомлення
Віктор 
Відео Гуртом - субтитрування
Відео Гуртом - субтитрування


З нами з: 09.01.10
Востаннє: 09.12.16
Повідомлень: 8664

2011-11-24 14:05  
Танґо і Кеш / Tango and Cash / Tango & Cash (1989) 720p Ukr/Eng | Sub Eng



«Two of L.A.'s top rival cops are going to have to work together... Even if it kills them. »


Жанр: бойовик, комедія, кримінальний
Країна: США



Кіностудія / кінокомпанія: Warner Bros. Pictures, Guber-Peters Company, The
Режисери: Андрій Кончаловський (Andrey Konchalovskiy) і Альберт Маґнолі (Albert Magnoli)
Композитор: Гарольд Фельтермеєр (Harold Faltermeyer)
Актори: Сильвестер Сталлоне (Sylvester Stallone), Курт Расселл (Kurt Russell), Тері Гетчер (Teri Hatcher), Джек Паланс (Jack Palance), Бріон Джеймс (Brion James), Джеймс Гонґ (James Hong) та інші.

Сюжет:
Двоє поліцейських з Лос-Анджелеса, Рей Танґо та Ґейб Кеш, у всьому змагаються між собою, але у них є одна спільна риса - кожний вважає, що він найкращий. Коли ж міжнародний король злочинності Ів Перре підставляє їх, і обидва вони потрапляють за ґрати, двом забіякам доводиться стати напарниками.
Цікаві факти

• Сцена, в якій Танґо (Сильвестр Сталлоне) зупиняє вантажівку, дуже сильно нагадує сцену з «Поліцейської історії 2» (1988), де Джекі Чан робить те ж саме.
• Перша назва фільму - «Підстава» (The Set Up).
• Під час знімального періоду Андрій Кончаловській покинув проект. Альберт Маґнолі закінчував зйомки фільму. Однак, в титрах як режисер зазначений тільки Андрій Кончаловській.
• Баррі Зонненфельд повинен був стати оператором цього фільму, але був звільнений на вимогу Сильвестра Сталлоне. На зміну йому прийшов Дональд І. Торін.
• Повний варіант має хронометраж 104 хвилини.
• Бюджет - $55,000,000
MediaInfo

Код:

General
Unique ID                                : 184857739438101066165805340808766662975 (0x8B124E3AB9586BFE8382D9275B5DA93F)
Complete name                            : D:\HURTOM\Tango and Cash (1989) [ukr,eng] 720p [Hurtom, HDCLUB].mkv
Format                                   : Matroska
Format version                           : Version 2
File size                                : 6.87 GiB
Duration                                 : 1h 43mn
Overall bit rate                         : 9 480 Kbps
Movie name                               : Tango and Cash (1989) [ukr,eng] 720p [Hurtom, HDCLUB]
Encoded date                             : UTC 2011-11-17 11:36:19
Writing application                      : mkvmerge v5.0.1 ('Es ist Sommer') built on Oct  9 2011 11:55:43
Writing library                          : libebml v1.2.2 + libmatroska v1.3.0
Attachment                               : Yes / Yes / Yes

Video
ID                                       : 1
Format                                   : AVC
Format/Info                              : Advanced Video Codec
Format profile                           : [email protected]
Format settings, CABAC                   : Yes
Format settings, ReFrames                : 8 frames
Codec ID                                 : V_MPEG4/ISO/AVC
Duration                                 : 1h 43mn
Bit rate                                 : 7 520 Kbps
Width                                    : 1 280 pixels
Height                                   : 536 pixels
Display aspect ratio                     : 2.40:1
Frame rate                               : 23.976 fps
Color space                              : YUV
Chroma subsampling                       : 4:2:0
Bit depth                                : 8 bits
Scan type                                : Progressive
Bits/(Pixel*Frame)                       : 0.457
Stream size                              : 5.32 GiB (77%)
Title                                    : Tango and Cash (1989) [ukr,eng] 720p [Hurtom, HDCLUB]
Writing library                          : core 67 r1125M 10d6ef0
Encoding settings                        : cabac=1 / ref=8 / deblock=1:-3:-3 / analyse=0x3:0x133 / me=umh / subme=9 / psy_rd=0.9:0.7 / mixed_ref=1 / me_range=24 / chroma_me=1 / trellis=2 / 8x8dct=1 / cqm=2 / deadzone=21,11 / chroma_qp_offset=-4 / threads=6 / nr=0 / decimate=0 / mbaff=0 / bframes=3 / b_pyramid=1 / b_adapt=2 / b_bias=0 / direct=3 / wpredb=1 / keyint=250 / keyint_min=25 / scenecut=40 / rc=2pass / bitrate=7520 / ratetol=1.0 / qcomp=0.60 / qpmin=10 / qpmax=35 / qpstep=4 / cplxblur=20.0 / qblur=0.5 / vbv_maxrate=40000 / vbv_bufsize=40000 / ip_ratio=1.40 / pb_ratio=1.30 / aq=1:0.70
Language                                 : English

Audio #1
ID                                       : 2
Format                                   : AC-3
Format/Info                              : Audio Coding 3
Mode extension                           : CM (complete main)
Codec ID                                 : A_AC3
Duration                                 : 1h 43mn
Bit rate mode                            : Constant
Bit rate                                 : 448 Kbps
Channel(s)                               : 6 channels
Channel positions                        : Front: L C R, Side: L R, LFE
Sampling rate                            : 48.0 KHz
Bit depth                                : 16 bits
Compression mode                         : Lossy
Stream size                              : 333 MiB (5%)
Title                                    : 5.1 @ 448 kbps - двоголосий закадровий
Language                                 : Ukrainian

Audio #2
ID                                       : 3
Format                                   :
Format/Info                              : Digital Theater Systems
Codec ID                                 : A_DTS
Duration                                 : 1h 43mn
Bit rate mode                            : Constant
Bit rate                                 : 1 510 Kbps
Channel(s)                               : 6 channels
Channel positions                        : Front: L C R, Side: L R, LFE
Sampling rate                            : 48.0 KHz
Bit depth                                : 24 bits
Compression mode                         : Lossy
Stream size                              : 1.09 GiB (16%)
Title                                    : 5.1 @ 1536 kbps
Language                                 : English

Text
ID                                       : 4
Format                                   : ASS
Codec ID                                 : S_TEXT/ASS
Codec ID/Info                            : Advanced Sub Station Alpha
Compression mode                         : Lossless
Language                                 : English
Релізи та інформація про озвучення/дублювання

720p Ukr/Eng | Sub Eng (6.87 GB) - двоголосий закадровий запис звуку з 1+1
Ukr/Eng (2.18 GB) - двоголосий закадровий запис звуку з 1+1

Ролі озвучили: Володимир Нечепоренко
Тривалість: 01:43:46
Якість: 720р (ріп від: ESiR)
Відео:
кодек:
розмір кадру: 1280х536
бітрейт: 7520 кб/с

Аудіо # 1:
мова: українська
переклад: двоголосий закадровий запис з 1+1 | усі чоловічі ролі озвучив Володимир Нечепоренко
кодек: 5.1
бітрейт: 448 кб/с

Аудіо # 2:
мова: англійська
переклад: ориґінал
кодек: 5.1
бітрейт: 1536 кб/с

Субтитри:
мова: англійська
тип: програмні (м'які)
формат: *.ass

Скріншоти:





За створення доріжки 5.1 подяка robotron005


Джерело: &
Особиста оцінка: 9


Срібний реліз (на рейтинг впливає 50% завантаженого)
 Трекер:    Зареєстрований   

Завантажити / скачати фільм українською



відео для новачків



 Зареєстрований:   2011-11-24 16:53
 Розмір:   6.87 GB 
 Оцінка фільму:   8.3/10 (Голосів: 11)
   
AndriyVoron 
Свій


З нами з: 30.11.10
Востаннє: 03.12.16
Повідомлень: 127

2011-11-25 18:34  
Суперовий фільм родом з дитинства... от тільки нащо ж такий важченний? :sic:
imonko 
Відео Гуртом - фільмокрай
Відео Гуртом - фільмокрай


З нами з: 20.07.08
Востаннє: 31.10.16
Повідомлень: 7309

2011-11-25 21:09  
AndriyVoron написано:
от тільки нащо ж такий важченний

бо легший вже давно, користуємось пошуком

hellgast 
Новенький


З нами з: 09.03.11
Востаннє: 19.02.12
Повідомлень: 11

2012-01-10 02:07  
Як раз шукав у HD-якостi i з Українською озвучкою. Подякував!!!
Ваш часовий пояс: GMT + 2 Години

Нова тема   Відповісти