Завантажити та скачати торренти українською


Супер 8 / Super 8 (2011) 720р

Нові коментарі

Нова тема   Відповісти
Останній раз роздавалося rimaer (2016-12-10)
Автор Повідомлення
Zeus62 
Відео Гуртом - команда HD
Відео Гуртом - команда HD


З нами з: 29.12.08
Востаннє: 16.11.16
Повідомлень: 330

2011-11-23 21:06  
Супер 8 / Super 8 (2011) 720р



Жанр: фантастика, трилер, екшн, детектив
Країна: США



Кіностудія / кінокомпанія: Paramount Pictures, Amblin Entertainment, Bad Robot
Режисер: Джей Джей Абрамс
Актори: Джоель Кортні, Джессіка Так, Джоель МакКіннон Міллер, Раян Лі, Зак Міллс

Сюжет:
Супер 8 - різновид плівки для любительської зйомки. Але відео, яке зберігає секретні кадри зафіксовані випадковими свідками, аж ніяк не може називатись домашнім. Можливо, викритий один із найбільших секретів мегадержави, але те, що сталося може змінити уявлення про світобудову усього людства. Що зберігається на території секретного об'єкту "Зона 51", що перевозилося потягом на авіабазу в Огайо, що приховує уряд? Досить запитань, бо відповіді вже є, вони всі у нас па плівці.


Тривалість: 01:51:48
Якість:
Відео:
кодек:
розмір кадру: 1280 х 532
бітрейт: 4987 кб/с

Аудіо:
мова: українська
переклад: професійний дубльований
кодек: 5.1
бітрейт: 448 кб/с
MediaInfo
Format : Matroska
File size : 4.24 GiB
Duration : 1h 51mn
Overall bit rate : 5 435 Kbps
Encoded date : UTC 2011-11-23 18:49:58
Writing application : mkvmerge v4.9.1 ('Ich will') зібрано Jul 23 2011 09:44:16
Writing library : libebml v1.2.1 + libmatroska v1.1.1

Video
ID : 1
Format : AVC
Format/Info : Advanced Video Codec
Format profile : [email protected]
Format settings, CABAC : Yes
Format settings, ReFrames : 4 frames
Muxing mode : Header stripping
Codec ID : V_MPEG4/ISO/AVC
Duration : 1h 51mn
Bit rate : 4 987 Kbps
Width : 1 280 pixels
Height : 532 pixels
Display aspect ratio : 2.40:1
Frame rate mode : Variable
Frame rate : 23.976 fps
Color space : YUV
Chroma subsampling : 4:2:0
Bit depth : 8 bits
Scan type : Progressive
Bits/(Pixel*Frame) : 0.305
Stream size : 3.81 GiB (90%)
Writing library : core 112
Encoding settings : cabac=1 / ref=2 / deblock=1:0:0 / analyse=0x1:0x111 / me=hex / subme=6 / psy=1 / psy_rd=1,00:0,00 / mixed_ref=0 / me_range=16 / chroma_me=1 / trellis=0 / 8x8dct=0 / cqm=0 / deadzone=21,11 / fast_pskip=1 / chroma_qp_offset=-2 / threads=9 / sliced_threads=0 / nr=0 / decimate=1 / interlaced=0 / constrained_intra=0 / bframes=2 / b_pyramid=2 / b_adapt=1 / b_bias=0 / direct=1 / weightb=0 / open_gop=0 / weightp=2 / keyint=240 / keyint_min=23 / scenecut=40 / intra_refresh=0 / rc_lookahead=40 / rc=2pass / mbtree=1 / bitrate=4987 / ratetol=1,0 / qcomp=0,60 / qpmin=3 / qpmax=51 / qpstep=4 / cplxblur=20,0 / qblur=0,5 / ip_ratio=1,40 / aq=1:1,00
Language : English
Color primaries : BT.709-5, BT.1361, IEC 61966-2-4, SMPTE RP177
Transfer characteristics : BT.709-5, BT.1361
Matrix coefficients : BT.709-5, BT.1361, IEC 61966-2-4 709, SMPTE RP177

Audio
ID : 2
Format : AC-3
Format/Info : Audio Coding 3
Mode extension : CM (complete main)
Muxing mode : Header stripping
Codec ID : A_AC3
Duration : 1h 51mn
Bit rate mode : Constant
Bit rate : 448 Kbps
Channel(s) : 6 channels
Channel positions : Front: L C R, Side: L R, LFE
Sampling rate : 48.0 KHz
Bit depth : 16 bits
Compression mode : Lossy
Delay relative to video : 359ms
Stream size : 358 MiB (8%)
Скріншоти:
Джерело: Власний ріп +
Особиста оцінка: 10 - без зайвих вагань рекомендую всім!


 Трекер:    Зареєстрований   

Завантажити / скачати фільм українською



відео для новачків



 Зареєстрований:   2011-11-23 21:06
 Розмір:   4.24 GB 
 Оцінка фільму:   9.4/10 (Голосів: 18)
   
Інші релізи
   Супер 8 / Super 8 (2011) Remux 1080p Ukr/Eng | Sub Ukr/Eng HI-FI SOUND  1 / 0   31.35 GB   2016-08-13 21:38 
   Супер 8 / Super 8 (2011) 720p Ukr/Eng | Sub Ukr/Eng Dim-ON  6 / 0   6.91 GB   2011-11-26 12:27 
   Супер 8 / Super 8 (2011) Ukr/Eng | Sub Ukr/Eng hellforces  5 / 0   2.18 GB   2011-11-23 22:51 
valera.braev 
Новенький


З нами з: 01.06.11
Востаннє: 02.12.16
Повідомлень: 4

2011-12-16 19:52  
людииииииии, коли будемо роздавати-так і до нового року буду закачувати?
Ваш часовий пояс: GMT + 2 Години

Нова тема   Відповісти