Завантажити та скачати торренти українською


Не погрожуй Південному Централу, попиваючи сік у себе в кварталі / Don't Be a Menace to South Central While Drinking Your Juice in the Hood (1996) 720p

Нові коментарі

Нова тема   Відповісти
Останній раз роздавалося vetal.44 (2016-12-03)
Автор Повідомлення
Zeus62 
Відео Гуртом - команда HD
Відео Гуртом - команда HD


З нами з: 29.12.08
Востаннє: 16.11.16
Повідомлень: 330

2011-11-23 20:31  
Не погрожуй Південному Централу, попиваючи сік у себе в кварталі / Don't Be a Menace to South Central While Drinking Your Juice in the Hood (1996) 720p



Жанр: чорна комедія
Країна: США



Кіностудія / кінокомпанія: Echo Bridge Entertainment
Режисер: Періс Барклай
Актори: Шоун Уайанс, Марлон Уайанс, Трейсі Черел Джонс, Кріс Спенсер, Сулі МакКалло, Даррел Хіт, Хелен Мартін, Айзіа Барнс

Сюжет:
Молодий афроамериканець на прізвисько Попільничка переїжджає до Лос-Анджелесу зі своїм батьком і бабусею. Попільничка пишається тим, що зі своїм батьком вони виглядають однолітками, це, на його погляд, «дуже круто». Пишається він і своєю бабусею, яка у свої роки курить план і не соромиться міцних висловів.
Незабаром Попільничка знайомиться зі своїм кузеном на прізвисько Ланцюговий Пес. Цей хлопець - гангстер, у його особистому арсеналі не лише пістолети і автомати, але і термоядерна боєголовка — «для самозахисту». Попільничка має обрати свій подальший шлях у житті: він може бути «просто хорошим чорношкірим» або стати «небезпечним чорношкірим», приєднавшись до банди свого кузена.


Тривалість: 01:28:52
Якість:
Відео:
кодек:
розмір кадру: 1280 х 720
бітрейт: 6426 кб/с

Аудіо:
мова: українська
переклад: багатоголосий закадровий
кодек: 5.1
бітрейт: 448 кб/с
MediaInfo:
Format: Matroska
File size : 4.27 GiB
Duration : 1h 28mn
Overall bit rate : 6 878 Kbps
Writing application : HandBrake 0.9.5
Writing library : libmkv 0.6.4.1

Video
ID : 1
Format : AVC
Format/Info : Advanced Video Codec
Format profile : [email protected]
Format settings, CABAC : Yes
Format settings, ReFrames : 4 frames
Codec ID : V_MPEG4/ISO/AVC
Duration : 1h 28mn
Bit rate : 6 426 Kbps
Width : 1 280 pixels
Height : 720 pixels
Display aspect ratio : 16:9
Frame rate mode : Variable
Frame rate : 29.970 fps
Color space : YUV
Chroma subsampling : 4:2:0
Bit depth : 8 bits
Scan type : Progressive
Bits/(Pixel*Frame) : 0.233
Stream size : 3.91 GiB (91%)
Writing library : core 112
Encoding settings : cabac=1 / ref=2 / deblock=1:0:0 / analyse=0x1:0x111 / me=hex / subme=6 / psy=1 / psy_rd=1,00:0,00 / mixed_ref=0 / me_range=16 / chroma_me=1 / trellis=0 / 8x8dct=0 / cqm=0 / deadzone=21,11 / fast_pskip=1 / chroma_qp_offset=-2 / threads=9 / sliced_threads=0 / nr=0 / decimate=1 / interlaced=0 / constrained_intra=0 / bframes=2 / b_pyramid=2 / b_adapt=1 / b_bias=0 / direct=1 / weightb=0 / open_gop=0 / weightp=2 / keyint=300 / keyint_min=29 / scenecut=40 / intra_refresh=0 / rc_lookahead=40 / rc=2pass / mbtree=1 / bitrate=6426 / ratetol=1,0 / qcomp=0,60 / qpmin=3 / qpmax=51 / qpstep=4 / cplxblur=20,0 / qblur=0,5 / ip_ratio=1,40 / aq=1:1,00
Language : English
Color primaries : BT.709-5, BT.1361, IEC 61966-2-4, SMPTE RP177
Transfer characteristics : BT.709-5, BT.1361
Matrix coefficients : BT.709-5, BT.1361, IEC 61966-2-4 709, SMPTE RP177

Audio
ID : 2
Format : AC-3
Format/Info : Audio Coding 3
Mode extension : CM (complete main)
Codec ID : A_AC3
Duration : 1h 28mn
Bit rate mode : Constant
Bit rate : 448 Kbps
Channel(s) : 6 channels
Channel positions : Front: L C R, Side: L R, LFE
Sampling rate : 48.0 KHz
Bit depth : 16 bits
Compression mode : Lossy
Stream size : 285 MiB (7%)
Language : Ukrainian
Скріншоти:

Джерело: Власний ріп + Перекодована доріжка мною в 5.1 +
Особиста оцінка: 10 - без зайвих вагань рекомендую всім!


Срібний реліз (на рейтинг впливає 50% завантаженого)
 Трекер:    Зареєстрований   

Завантажити / скачати фільм українською



відео для новачків



 Зареєстрований:   2011-11-23 20:31
 Розмір:   4.27 GB 
 Оцінка фільму:   8.7/10 (Голосів: 21)
   
Spawn 182 
Свій


З нами з: 27.07.09
Востаннє: 03.12.16
Повідомлень: 57

2011-11-24 09:16  
Скажіть будь ласка тут звучить призвісько ЛокДок чи відмичка????
paulrufous 
Свій


З нами з: 04.03.11
Востаннє: 03.12.16
Повідомлень: 73

2011-11-24 10:08  
Шедевр.
Zeus62 
Відео Гуртом - команда HD
Відео Гуртом - команда HD


З нами з: 29.12.08
Востаннє: 16.11.16
Повідомлень: 330

2011-11-24 16:33  
Spawn 182
ЛокДок

TediRose 
Новенький


З нами з: 21.03.12
Востаннє: 18.02.15
Повідомлень: 2

2012-07-22 15:03  
встаньте будь ласка на роздачу!!!
ua2004 
Відео Гуртом - фільмокрай
Відео Гуртом - фільмокрай


З нами з: 31.01.08
Востаннє: 03.12.16
Повідомлень: 3128

2012-07-24 13:25  
Без озвучки 1+1 не годиться)
малюк94 
VIP


З нами з: 03.03.10
Востаннє: 04.12.16
Повідомлень: 410

2012-08-01 10:50  
станьте на роздаачу...
Ваш часовий пояс: GMT + 2 Години

Нова тема   Відповісти