Завантажити та скачати торренти українською


Королівські зайці – Серце-місяць (2011) [APE] | Melodic Rock

Нові коментарі

Нова тема   Відповісти
Останній раз роздавалося Sloneniatko (2016-12-11)
Автор Повідомлення
MisterR 
Поважний учасник


З нами з: 18.06.08
Востаннє: 10.12.16
Повідомлень: 198

2011-11-23 00:20  
Королівські зайці – Серце-місяць (2011) [APE] | Melodic Rock



Стиль: Melodic Rock
Країна, місто: Україна, Львів - Київ
Сайти:
Видавець: Наш Формат, МА
Виконавці:
    Леся Герасимчук – музика, аранжування, вокал, клавіші
    Тарас Ясиневич – бас-гітара, бек-вокал
    Назар Ясиневич – гітара, бек-вокал
    Владислав Хмарський – ударні
    Єгор Головачов – клавішні інструменти

    Андрій Войтюк – ударні (трек "Під мостом Мірабо", "Йо-хо-хо")
    Сергій Головін – гітара (трек "Йо-хо-хо")
    Андрій Гурняк – гітара (трек "Йо-хо-хо")

Пісні:
    01. Пісні такі
    02. Голубка
    03. Серце-місяць
    04. Замість сонця
    05. А би я
    06. Тінь
    07. Ілюзії
    08. Лускунчик
    09. Дні без сонця
    10. Іскра
    11. Під мостом Мірабо
    12. Мій сон
    13. Йо-хо-хо

Тривалість: 00:52:29
Мова: українська
Аудіо-кодек: APE
Бітрейт: 1 411,2 кб/с
Джерело: аудіодиск
EAC extraction logfile

Exact Audio Copy V0.99 prebeta 4 from 23. January 2008

EAC extraction logfile from 22. November 2011, 23:53

Королівські зайці / Серце-Місяць

Used drive : HL-DT-STDVDRAM GH24NS70 Adapter: 3 ID: 1

Read mode : Secure
Utilize accurate stream : Yes
Defeat audio cache : Yes
Make use of C2 pointers : No

Read offset correction : 0
Overread into Lead-In and Lead-Out : No
Fill up missing offset samples with silence : Yes
Delete leading and trailing silent blocks : No
Null samples used in CRC calculations : Yes
Used interface : Native Win32 interface for Win NT & 2000

Used output format : Internal WAV Routines
Sample format : 44.100 Hz; 16 Bit; Stereo

Range status and errors

Selected range

Filename E:\Images\Music\Королівські зайці - Серце-Місяць.wav

Peak level 100.0 %
Range quality 100.0 %
Copy CRC F8734DDC
Copy OK

No errors occurred

End of status report
Додаткова інформація:
Здається, більше 10 років минуло з моменту виходу попереднього альбому "Королівських Зайців" – і, мабуть, мало хто сподівався на продовження. Хоча, з огляду на перші роботи гурту, така довга мовчанка мала засмутити всіх поціновувачів гарної поезії, оздобленої альтернативними музичними візерунками. Бо виходило гарно, неоднозначно – і цікаво. Що ж, продовження сталося – причому не "камбек", а саме продовження, розвиток. Наче й не було цієї паузи. Втім, є виміри, напевно, де її таки не було... А от що лишилося незмінним – це якість поезії та характерність вокалу. Щодо поезії – Леся Українка, Олесь, Сосюра, Коробчук, Аполлінер – власне, Леся Герасимчук з текстами ніколи не хибила, це класна поезія. Стосовно ж вокалу – я не дуже добре пам’ятаю, як це було. Але добре чую, як воно є – і це дуже чесний спів, у якому дивовижним чином сполучається м’якість і оголений нерв. Не знаю, як. І – це працює. Бо, коли людина з таким голосом – співаючи – всміхається, ця усмішка світиться дуже по-справжньому... (c) УМКА


Якщо Ви справді бажаєте підтримати українське - після прослуховування, якщо музика вам сподобалась, придбайте ліцензійний диск. Підтримаймо вітчизняних виконавців!




Срібний реліз (на рейтинг впливає 50% завантаженого)
 Трекер:    Зареєстрований   

Завантажити / скачати українську музику



відео для новачків



 Зареєстрований:   2011-11-23 00:20
 Розмір:   346 MB 
 Оцінка музики:   10/10 (Голосів: 15)
   
hvvi 
Свій


З нами з: 25.02.10
Востаннє: 07.12.16
Повідомлень: 74

2011-11-24 22:01  
CUE файл без назв пісень і не правильно вказаний формат(замість APE стоїть wav) музичного файлу. через що він і не програється
ssTAss 
Модератор музики


З нами з: 05.07.08
Востаннє: 11.12.16
Повідомлень: 10958

2011-11-24 22:58  
hvvi написано:
CUE файл без назв пісень і не правильно вказаний формат(замість APE стоїть wav) музичного файлу. через що він і не програється

ну, це не проблема
ось вам нормальний куе
cue
REM GENRE Rock
REM DATE 2011
REM DISCID C20C4C0D
REM COMMENT ExactAudioCopy v0.99pb4
PERFORMER "Королівські зайці"
TITLE "Серце-Місяць"
FILE "Королівські зайці - Серце-Місяць.ape" WAVE
TRACK 01 AUDIO
TITLE "Пісні такі"
INDEX 01 00:00:00
TRACK 02 AUDIO
TITLE "Голубка"
INDEX 00 03:34:10
INDEX 01 03:36:10
TRACK 03 AUDIO
TITLE "Серце-місяць"
INDEX 00 07:08:16
INDEX 01 07:10:16
TRACK 04 AUDIO
TITLE "Замість сонця"
INDEX 00 11:26:45
INDEX 01 11:28:45
TRACK 05 AUDIO
TITLE "Аби я"
INDEX 00 15:33:40
INDEX 01 15:35:40
TRACK 06 AUDIO
TITLE "Тінь"
INDEX 00 19:49:52
INDEX 01 19:51:52
TRACK 07 AUDIO
TITLE "Ілюзії"
INDEX 00 23:44:67
INDEX 01 23:46:67
TRACK 08 AUDIO
TITLE "Лускунчик"
INDEX 00 28:12:03
INDEX 01 28:14:03
TRACK 09 AUDIO
TITLE "Дні без сонця"
INDEX 00 32:15:04
INDEX 01 32:17:04
TRACK 10 AUDIO
TITLE "Іскра"
INDEX 00 36:20:10
INDEX 01 36:22:10
TRACK 11 AUDIO
TITLE "Під мостом Мірабо"
INDEX 00 40:21:02
INDEX 01 40:23:02
TRACK 12 AUDIO
TITLE "Мій сон"
INDEX 00 44:19:66
INDEX 01 44:21:66
TRACK 13 AUDIO
TITLE "Йо-хо-хо"
INDEX 00 48:07:65
INDEX 01 48:09:65
копірніть існуючий (не витирайте, він потрібен для запису на диск), переназвіть на Королівські зайці - Серце-Місяць.ape.cue і в редакторі (я використовую EditPlus або F4 в тотал командері) змініть на текст, який дав вище

hvvi 
Свій


З нами з: 25.02.10
Востаннє: 07.12.16
Повідомлень: 74

2011-12-01 15:19  
та для мене це також не проблема, відразу все поретушив Happy, просто пишу завваження
Воантій 
Частий відвідувач


З нами з: 12.01.09
Востаннє: 01.12.16
Повідомлень: 25

2012-02-10 16:54  
Ну щодо цього довгограю - варто й’го таки придбати.
Дуже крутий, дякую.

Ваш часовий пояс: GMT + 2 Години

Нова тема   Відповісти