Завантажити та скачати торренти українською


Без компромісів / Blitz (2011) 720p Ukr/Eng

Нові коментарі

Нова тема   Відповісти
Автор Повідомлення
hellforces 
VIP


З нами з: 25.06.08
Востаннє: 11.11.16
Повідомлень: 1556

2011-11-22 03:07  
Без компромісів / Blitz (2011) 720p Ukr/Eng




Жанр: трилер, кримінал
Країна: Велика Британія



Режисер: Елліотт Лестер
Актори: Джейсон Стетхем, Педді Консідайн, Ейден Гіллен, Зейв Ештон, Девід Морріссі, Люк Еванс та інші.

Сюжет:
Сім чи вісім? Не у грамах, а в поліцейських!.. Саме цим питанням задається лондонський маніяк, що вирішив прославитися. Обравши собі для перших смуг таблоїдів звучний псевдонім Бліц і озброївшись молотком, Баррі Вайс виходить на вулиці. І тепер поліції Лондона, точніше головному герою, роль якого зіграв брутальний красень Джейсон Стетхем, в кращих традиціях Гая Річі і Квентіна Тарантіно доведеться рятувати свої шкури і намагатися зупинити божевільного вбивцю...


Тривалість: 01:37:38
Якість: 720р
Відео:
кодек: х.264
розмір кадру: 1280x544
бітрейт: ~5565 кб/с

Аудіо # 1:
мова: українська
переклад: професійний дубльований
кодек: 5.1
бітрейт: ~448 кб/с

Аудіо # 2:
мова: англійська
переклад: оригінал
кодек: 5.1
бітрейт: ~384 кб/с

MediaInfo
General
Complete name : D:\Фільми\Blitz (2011) 720p [Hurtom].mkv
Format : Matroska
File size : 4.47 GiB
Duration : 1h 37mn
Overall bit rate : 6 548 Kbps
Encoded date : UTC 2011-11-22 00:50:44
Writing application : mkvmerge v2.9.8 ('C'est le bon') built on Aug 13 2009 12:49:06
Writing library : libebml v0.7.7 + libmatroska v0.8.1

Video
ID : 1
Format : AVC
Format/Info : Advanced Video Codec
Format profile : [email protected]
Format settings, CABAC : Yes
Format settings, ReFrames : 12 frames
Muxing mode : Container [email protected]
Codec ID : V_MPEG4/ISO/AVC
Duration : 1h 37mn
Bit rate : 5 586 Kbps
Width : 1 280 pixels
Height : 544 pixels
Display aspect ratio : 2.35:1
Frame rate : 23.976 fps
Color space : YUV
Chroma subsampling : 4:2:0
Bit depth : 8 bits
Scan type : Progressive
Bits/(Pixel*Frame) : 0.335
Stream size : 3.81 GiB (85%)
Writing library : core 112
Encoding settings : cabac=1 / ref=12 / deblock=1:-2:-2 / analyse=0x3:0x113 / me=umh / subme=9 / psy=1 / psy_rd=1.00:0.15 / mixed_ref=1 / me_range=16 / chroma_me=1 / trellis=1 / 8x8dct=1 / cqm=0 / deadzone=21,11 / fast_pskip=1 / chroma_qp_offset=-3 / threads=6 / sliced_threads=0 / nr=0 / decimate=1 / interlaced=0 / constrained_intra=0 / bframes=9 / b_pyramid=2 / b_adapt=1 / b_bias=0 / direct=1 / weightb=1 / open_gop=0 / weightp=2 / keyint=240 / keyint_min=23 / scenecut=40 / intra_refresh=0 / rc_lookahead=40 / rc=crf / mbtree=1 / crf=18.5 / qcomp=0.60 / qpmin=3 / qpmax=51 / qpstep=4 / ip_ratio=1.40 / aq=1:1.00
Language : English
Color primaries : BT.709-5, BT.1361, IEC 61966-2-4, SMPTE RP177
Transfer characteristics : BT.709-5, BT.1361
Matrix coefficients : BT.709-5, BT.1361, IEC 61966-2-4 709, SMPTE RP177

Audio #1
ID : 2
Format : AC-3
Format/Info : Audio Coding 3
Mode extension : CM (complete main)
Codec ID : A_AC3
Duration : 1h 37mn
Bit rate mode : Constant
Bit rate : 448 Kbps
Channel(s) : 6 channels
Channel positions : Front: L C R, Side: L R, LFE
Sampling rate : 48.0 KHz
Stream size : 313 MiB (7%)
Title : 5.1 Дубляж
Language : Ukrainian

Audio #2
ID : 3
Format : AC-3
Format/Info : Audio Coding 3
Mode extension : CM (complete main)
Codec ID : A_AC3
Duration : 1h 37mn
Bit rate mode : Constant
Bit rate : 384 Kbps
Channel(s) : 6 channels
Channel positions : Front: L C R, Side: L R, LFE
Sampling rate : 48.0 KHz
Stream size : 268 MiB (6%)
Title : Original
Language : English

Menu
00:00:00.000 : en:Chapter 1
00:08:44.315 : en:Chapter 2
00:16:29.780 : en:Chapter 3
00:23:39.960 : en:Chapter 4
00:31:07.198 : en:Chapter 5
00:40:13.869 : en:Chapter 6
00:48:02.713 : en:Chapter 7
00:55:24.612 : en:Chapter 8
01:03:44.570 : en:Chapter 9
01:11:32.830 : en:Chapter 10
01:20:07.969 : en:Chapter 11
01:32:12.527 : en:Chapter 12
Скріншоти:














 Трекер:    Зареєстрований   

Завантажити / скачати фільм українською



відео для новачків



 Зареєстрований:   2011-11-22 03:07
 Розмір:   4.47 GB 
 Оцінка фільму:   9/10 (Голосів: 21)
   
Інші релізи
   Без компромісів / Blitz (2011) 3xUkr/Eng Arsenfpu  12 / 0   2.15 GB   2016-08-16 19:57 
Прокурор 
VIP


З нами з: 24.06.13
Востаннє: 06.12.16
Повідомлень: 343

2014-06-09 01:33  
файний фільмHappy
Ваш часовий пояс: GMT + 2 Години

Нова тема   Відповісти