Завантажити та скачати торренти українською


Червона спека / Red Heat (1988) 720p Ukr/Eng | Sub Eng

Нові коментарі

Нова тема   Відповісти
Автор Повідомлення
Віктор 
Відео Гуртом - субтитрування
Відео Гуртом - субтитрування


З нами з: 09.01.10
Востаннє: 02.12.16
Повідомлень: 8661

2011-11-21 19:21  
Червона спека / Red Heat (1988) 720p Ukr/Eng | Sub Eng



«Moscow's toughest detective. Chicago's craziest cop. There's only one thing worse than making them mad. Making them partners.»


Жанр: пригодницький, комедія, кримінальний
Країна: США



Кіностудія / кінокомпанія: Carolco Pictures, Lone Wolf Films, Oak Pictures
Режисер: Волтер Гіл (Walter Hill)
Композитор: Джеймс Горнер (James Horner)
Актори: Арнольд Шварценеґер (Arnold Schwarzenegger), Джеймс Белуші (James Belushi), Пітер Бойл (Peter Boyle), Лоуренс Фішберн (Laurence Fishburne), Джина Ґершон (Gina Gershon), Річард Брайт (Richard Bright), Бріон Джеймс (Brion James), Савелій Крамаров та інші.

Сюжет:
У совєтські часи торгівля наркотиками була надзвичайним злочином. Боротьбу з грузинським мафіозі, який, використовуючи всі зв’язки з США, намагається привчити совєтських громадян до кокаїну, починає гроза злочинного світу, міліціонер Іван Данко.
Він не любить жартів, доказом серйозності його намірів є великі м’язи і пістолет. Щоб заарештувати головоріза, Іван вирушає у Чікаґо – розплідник капіталістичної зарази. Там його помічником стає балакучий полісмен. Разом вони обеззброюють мафіозі, руйнуючи при цьому пів-міста й розстрілюючи кілька десятків поганців.
Цікавинки


Цікавинки про фільм

• «Червона спека» стала першим західним фільмом, знімальній групі якого дозволили знімати на Красній площі в Москві.
• Більшість московських сцен насправді було знято в Угорщині.
• Фільм присвячений пам'яті постановника трюків, Бенні Добінса, який помер від серцевого нападу на знімальному майданчику цього фільму.
• Для зйомок сцени у в'язниці в якості масовки було залучено приблизно 200 ув'язнених.
• До початку зйомок Арнольд Шварценеґер впродовж трьох місяців брав уроки російської мови.
• До початку зйомок Джеймс Белуші пропрацював два тижні в чиказькому поліційному відділку.
• Іван Данко (Шварценеґер) використовує пістолет «Подберін 9.2 мм». Такого пістолета насправді не існує. Те, що ми бачили у фільмі - це модифікований «Дезерт Іґл Маґнум».
• В одній зі сцен фільму Данко обговорює проблему героїну в Америці. Також він називає місце в США, де ця проблема стоїть найбільш гостро - Гарлем, проте, в англійських субтитрах це місце вказане як Маямі.
• До початку зйомок Волтер Гіл попросив Арнольда Шварценеґера схуднути на 10 фунтів (приблизно 4,5 кг), а Джеймса Белуші - поправитися на 10 фунтів.
• У кав'ярні Рідзік показує Данко різні поліцейські звіти, які йому потрібно заповнити. Якщо придивитися уважно до бланку, який показують крупним планом, то можна побачити його назву - «Непотрібний звіт про подію поліції Чікаґо».
• У творців фільму пішло шість місяців, для того щоб отримати дозвіл на зйомки на Красній площі. Їм дозволили знімати в самому центрі Москви лише тому, що головний герой фільму був росіянином.
• Ім'я і підпис, що стоять до Івана Данко у гостьовій книзі готелі, належать Джиму Морісону, лідеру групи «The Doors».
• Наркодилера, одягненого в білий костюм, якого зустрів Роставелі на автобусній станції, кличуть Лупо. Це той же самий Лупо з «Extreme Prejudice»: він з’являється в кінці фільму, після того, як герой Ніка Нолті застрелив героя Паверса Бута.
• Музика в початкових і кінцевих титрах - уривок Кантати до 20-річчя Жовтневої революції Прокоф'єва, про що в титрах навіть не згадується.
MediaInfo

Код:

General
Unique ID                                : 224299258085243904571447569120366183952 (0xA8BE773C605DB2C58DFA9DBA3BE84610)
Complete name                            : D:\HURTOM\Red Heat (1988) [Ukr, Eng] 720p [Hurtom, HDCLUB].mkv
Format                                   : Matroska
Format version                           : Version 2
File size                                : 6.87 GiB
Duration                                 : 1h 44mn
Overall bit rate                         : 9 432 Kbps
Movie name                               : Red Heat (1988) [Ukr, Eng] 720p [Hurtom, HDCLUB]
Encoded date                             : UTC 2011-11-14 16:39:32
Writing application                      : mkvmerge v5.0.1 ('Es ist Sommer') built on Oct  9 2011 11:55:43
Writing library                          : libebml v1.2.2 + libmatroska v1.3.0

Video
ID                                       : 1
Format                                   : AVC
Format/Info                              : Advanced Video Codec
Format profile                           : [email protected]
Format settings, CABAC                   : Yes
Format settings, ReFrames                : 8 frames
Codec ID                                 : V_MPEG4/ISO/AVC
Duration                                 : 1h 44mn
Bit rate                                 : 7 473 Kbps
Width                                    : 1 280 pixels
Height                                   : 720 pixels
Display aspect ratio                     : 16:9
Frame rate                               : 23.976 fps
Color space                              : YUV
Chroma subsampling                       : 4:2:0
Bit depth                                : 8 bits
Scan type                                : Progressive
Bits/(Pixel*Frame)                       : 0.338
Stream size                              : 5.31 GiB (77%)
Title                                    : Red Heat (1988) [Ukr, Eng] 720p [Hurtom, HDCLUB]
Writing library                          : core 80 r1373M 4322f63
Encoding settings                        : cabac=1 / ref=8 / deblock=1:-3:-3 / analyse=0x3:0x113 / me=umh / subme=9 / psy=1 / psy_rd=1.0:0.2 / mixed_ref=1 / me_range=24 / chroma_me=1 / trellis=2 / 8x8dct=1 / cqm=0 / deadzone=21,11 / fast_pskip=0 / chroma_qp_offset=-3 / threads=6 / sliced_threads=0 / nr=0 / decimate=1 / mbaff=0 / constrained_intra=0 / bframes=6 / b_pyramid=2 / b_adapt=2 / b_bias=0 / direct=3 / wpredb=1 / wpredp=2 / keyint=250 / keyint_min=25 / scenecut=40 / rc=2pass / mbtree=0 / bitrate=7473 / ratetol=1.0 / qcomp=0.60 / qpmin=10 / qpmax=51 / qpstep=4 / cplxblur=20.0 / qblur=0.5 / ip_ratio=1.40 / pb_ratio=1.30 / aq=1:0.60
Language                                 : English

Audio #1
ID                                       : 2
Format                                   : AC-3
Format/Info                              : Audio Coding 3
Mode extension                           : CM (complete main)
Codec ID                                 : A_AC3
Duration                                 : 1h 44mn
Bit rate mode                            : Constant
Bit rate                                 : 448 Kbps
Channel(s)                               : 6 channels
Channel positions                        : Front: L C R, Side: L R, LFE
Sampling rate                            : 48.0 KHz
Bit depth                                : 16 bits
Compression mode                         : Lossy
Stream size                              : 334 MiB (5%)
Title                                    : 5.1 @ 448 kbps - двоголосий закадровий
Language                                 : Ukrainian

Audio #2
ID                                       : 3
Format                                   :
Format/Info                              : Digital Theater Systems
Codec ID                                 : A_DTS
Duration                                 : 1h 44mn
Bit rate mode                            : Constant
Bit rate                                 : 1 510 Kbps
Channel(s)                               : 6 channels
Channel positions                        : Front: L C R, Side: L R, LFE
Sampling rate                            : 48.0 KHz
Bit depth                                : 24 bits
Compression mode                         : Lossy
Stream size                              : 1.10 GiB (16%)
Title                                    : 5.1 @ 1536 Kbps
Language                                 : English

Text
ID                                       : 4
Format                                   : UTF-8
Codec ID                                 : S_TEXT/UTF8
Codec ID/Info                            : UTF-8 Plain Text
Language                                 : English

Menu
00:00:00.000                             : en:00:00:00.000
00:05:10.435                             : en:00:05:10.435
00:14:53.226                             : en:00:14:53.226
00:19:45.393                             : en:00:19:45.393
00:25:35.075                             : en:00:25:35.075
00:30:29.661                             : en:00:30:29.661
00:39:35.331                             : en:00:39:35.331
00:43:38.533                             : en:00:43:38.533
00:50:14.345                             : en:00:50:14.345
00:55:11.391                             : en:00:55:11.391
00:59:50.086                             : en:00:59:50.086
01:07:11.819                             : en:01:07:11.819
01:14:39.892                             : en:01:14:39.892
01:19:44.321                             : en:01:19:44.321
01:27:43.842                             : en:01:27:43.842
01:37:54.535                             : en:01:37:54.535
Тривалість: 01:44:21
Якість: 720p (EbP)
Відео:
кодек:
розмір кадру: 1280x720
бітрейт: 7473 кб/с

Аудіо # 1:
мова: українська
переклад: двоголосий закадровий запис звуку з ICTV | усі чоловічі ролі озвучив Олександр Завальський
кодек: 5.1
бітрейт: 448 кб/с

Аудіо # 2:
мова: англійська
переклад: ориґінал
кодек: 5.1
бітрейт: 1536 кб/с

Субтитри:
мова: анґлійська
тип: програмні (м'які)
формат: *.srt

Скріншоти:





За створення доріжки 5.1 подяка robotron005,
за запис доріжки з ТБ подяка Romario_O


Джерело:

Особиста оцінка: 8


Срібний реліз (на рейтинг впливає 50% завантаженого)
 Трекер:    Зареєстрований   

Завантажити / скачати фільм українською



відео для новачків



 Зареєстрований:   2011-11-21 19:22
 Розмір:   6.87 GB 
 Оцінка фільму:   8.8/10 (Голосів: 19)
   
Інші релізи
   Червона спека / Red Heat (1988) sokeel  6 / 0   744 MB   2016-10-20 16:55 
   Червона спека / Red Heat (1988) Ukr/Eng | Sub Eng robotron005  7 / 0   2.18 GB   2010-06-07 18:29 
_Andruha_ 
Свій


З нами з: 20.02.10
Востаннє: 02.12.16
Повідомлень: 55

2016-02-03 18:42  
дайте газку будь ласка..вже 3й день не можу завантажити(
Ваш часовий пояс: GMT + 2 Години

Нова тема   Відповісти