Завантажити та скачати торренти українською


Віктор Павлік - Твої очі (2006) [FLAC] | Pop

Нові коментарі

Нова тема   Відповісти
Автор Повідомлення
ssTAss 
Модератор музики


З нами з: 05.07.08
Востаннє: 06.12.16
Повідомлень: 10946

2011-11-20 17:21  
Віктор Павлік - Твої очі (2006) [FLAC] | Pop



Стиль: Pop
Країна, місто: Україна, Теребовля (Тернопільська обл.)
Сайти: Офіційний сайт
Видавець: Artur Music
Виконавці:
Павлік Віктор Франкович
Пісні:
    1. Відлітаєш (музика: Емре, слова: О. Бригинець)
    2. Твої очі (музика: Доуш, слова: М. Одольська)
    3. Мамо моя (музика: EL Roman, слова: М. Одольська)
    4. Кличу тебе (музика: Г. Крупник, слова: Д. Гольде)
    5. Весна (музика: EL Roman, слова: М. Одольська)
    6. Знаю (музика: Ялин, слова: Д. Гольде)
    7. ДАЇ присвячується (музика: О. Харитонов, слова: В. Сєров)
    8. Хто, якщо не ти (музика: В. Колесник, слова: С. Лазо)
    9. На Івана Купала (музика: І. Балан, слова: Ю. Латуненко)
    10. Лейла (музика: EL Roman, слова: С. Лазо)
    11. Ми навіть не знайомі (музика: Г. Крупник, слова: Д. Гольде)
    12. Я тебе кохаю (музика: Р. Іванов, слова: О. Майовський)
    13. Для всіх (музика: П. Мага, слова: А. Укупник)
    14. Карнавал (музика: бразильська народна, слова: О. Басюк)
    15. Пані & пан (музика: С. Лазо, слова: С. Лазо)
    16. Знайди мене (музика: М. Трубач, слова: М. Трубач)
    відео: (в роздачі відсутнє)
    17. Відлітаєш
log
Exact Audio Copy V0.99 prebeta 4 from 23. January 2008

Отчёт EAC об извлечении, выполненном 6. июля 2010, 13:27

Виктор Павлик / Твоi Очi

Дисковод: HL-DT-STDVDRAM GSA-H62N Adapter: 4 ID: 0

Режим чтения : Скоростной

Коррекция смещения при чтении : 667
Способность читать области Lead-in и Lead-out : Нет
Заполнение пропущенных сэмплов тишиной : Да
Удаление блоков с тишиной в начале и конце : Нет
При вычислениях CRC использовались нулевые сэмплы : Нет
Интерфейс : Встроенный Win32-интерфейс для Win NT/2000

Выходной формат : Внутренние WAV-операции
Формат сэмплов : 44.100 Гц; 16 бит; стерео

TOC извлечённого CD

Трек | Старт | Длительность | Начальный сектор | Конечный сектор
---------------------------------------------------------------------
1 | 0:00.00 | 3:25.20 | 0 | 15394
2 | 3:25.20 | 4:53.60 | 15395 | 37429
3 | 8:19.05 | 3:55.46 | 37430 | 55100
4 | 12:14.51 | 3:34.11 | 55101 | 71161
5 | 15:48.62 | 4:03.08 | 71162 | 89394
6 | 19:51.70 | 4:06.62 | 89395 | 107906
7 | 23:58.57 | 4:12.13 | 107907 | 126819
8 | 28:10.70 | 3:45.38 | 126820 | 143732
9 | 31:56.33 | 3:26.40 | 143733 | 159222
10 | 35:22.73 | 3:50.21 | 159223 | 176493
11 | 39:13.19 | 3:45.28 | 176494 | 193396
12 | 42:58.47 | 4:04.01 | 193397 | 211697
13 | 47:02.48 | 3:10.26 | 211698 | 225973
14 | 50:12.74 | 2:50.70 | 225974 | 238793
15 | 53:03.69 | 3:02.60 | 238794 | 252503
16 | 56:06.54 | 3:36.19 | 252504 | 268722
17 | 62:14.73 | 12:36.01 | 280123 | 336823

Характеристики диапазона извлечения и сообщения об ошибках

Выбранный диапазон

Имя файла C:\Documents and Settings\Администратор\Мои документы\Моя музыка\Виктор Павлик - Твоi Очi.wav

Пиковый уровень 100.0 %
CRC копии 024F126C
Копирование... OK

Ошибок не произошло

Конец отчёта
fooCDtect
fooCDtect - foobar2000 + auCDtect, baralgin.

auCDtect: CD records authenticity detector, version 0.8.2
Copyright (c) 2004 Oleg Berngardt. All rights reserved.
Copyright (c) 2004 Alexander Djourik. All rights reserved.

mode: 0

=======================================================
Track: 01 - Відлітаєш
Quality: CDDA, 100%
=======================================================
Track: 02 - Твої очі
Quality: CDDA, 100%
=======================================================
Track: 03 - Мама
Quality: CDDA, 99%
=======================================================
Track: 04 - Кличу тебе
Quality: CDDA, 100%
=======================================================
Track: 05 - Весна
Quality: CDDA, 100%
=======================================================
Track: 06 - Знаю
Quality: CDDA, 100%
=======================================================
Track: 07 - ДАІ присячується
Quality: CDDA, 100%
=======================================================
Track: 08 - Хто, якщо не ти
Quality: CDDA, 100%
=======================================================
Track: 09 - На Івана Купала
Quality: CDDA, 100%
=======================================================
Track: 10 - Лейла
Quality: CDDA, 100%
=======================================================
Track: 11 - Ми навіть не знайомі
Quality: CDDA, 100%
=======================================================
Track: 12 - Я тебе кохаю
Quality: CDDA, 100%
=======================================================
Track: 13 - Для всіх
Quality: CDDA, 100%
=======================================================
Track: 14 - Карнавал
Quality: CDDA, 100%
=======================================================
Track: 15 - Пані & пан
Quality: CDDA, 100%
=======================================================
Track: 16 - Знайди мене (тріо с А.Рудницькою і М.Трубачом)
Quality: CDDA, 100%
=======================================================
Тривалість: 00:59:43
Мова: українська
Аудіо-кодек: FLAC
Бітрейт: 1017 кб/с
Джерело: інший трекер
Додаткова інформація:
Віктор Павлік має величезну дискографію, одну з найбільших, можливо, в Україні. Але нових назв у ній вже деякий час не з’являлося, хоча сам співак нікуди не зникав, на затихав, і в концертах звучав, і в телевізор потрапляти не забував. І ось, нарешті – новий альбом. Свіжий, спокійний – і сильний саме цим спокоєм. Це відчуття добре знає людина, впевнена у тому, що може покластися на свої сили – і все буде добре. Скидається на те, що Віктор Павлік віднайшов той самий спокій, той самий центр, з якого все виглядає гарним, все складається так, як треба. Ніхто не поспішає, не влаштовує істерик, не страждає удавано або занадто – все добре. Ну а коли по-справжньому добре людині, яка співає – добре та спокійно стає і людині, яка слухає. Отже, якщо маєте проблеми – цей альбом допоможе знайти заспокоєння. А якщо не маєте – то він закріпить фундамент. Гадаю, не випадково очі присутні і в назві диску, і в його оформленні – до життя потрібно ставитися уважно. Вочевидь, Віктор Павлік добре знає про це – варто б і нам не забувати.


Якщо Ви справді бажаєте підтримати українське - після прослуховування, якщо музика вам сподобалась,
придбайте ліцензійний диск.
Підтримаймо вітчизняних виконавців!


Срібний реліз (на рейтинг впливає 50% завантаженого)
 Трекер:    Зареєстрований   

Завантажити / скачати українську музику



відео для новачків



 Зареєстрований:   2011-11-20 17:21
 Розмір:   436 MB 
 Оцінка музики:   7.5/10 (Голосів: 11)
   
ssTAss 
Модератор музики


З нами з: 05.07.08
Востаннє: 06.12.16
Повідомлень: 10946

2011-11-20 17:24  

Ваш часовий пояс: GMT + 2 Години

Нова тема   Відповісти