Завантажити та скачати торренти українською


Скрябін - Озимі люди (2002) [APE] | Pop / Pop-Rock

Нові коментарі

Нова тема   Відповісти
Автор Повідомлення
ssTAss 
Модератор музики


З нами з: 05.07.08
Востаннє: 03.12.16
Повідомлень: 10932

2011-11-20 16:52  
Скрябін - Озимі люди (2002) [APE] | Pop / Pop-Rock



Стиль: Pop, Rock, Electro
Країна, місто: Україна, Новояворівськ
Видавець: Real Records
Виконавці:
Кузьма — вокал, кейборди
Зваля (Олексій Зволінський) — гітари, кейборди
Шура — кейборди
Мельник Саня — бас
Малий (Володя Поршенко) — друми
Підлуж — вокали
Nick Kershaw — соло на клавішах (трек № 1)
Саша заглада — програмовані барабани
Пісні:
    1. Любити платити
    2. Шукав свій дім
    3. Машина часу
    4. Наші
    5. Сам собі країна
    6. АШ
    7. Нова "студія свободи"
    8. Герой
    9. Усталі
    10. Я хочу бути духами
    11. Олля
    12. Дочка Україна
    13. Любити платити (ремікс)
log
Exact Audio Copy V0.99 prebeta 5 from 4. May 2009

Отчёт EAC об извлечении, выполненном 14. сентября 2009, 11:42

Скрябiн / Озимi люди

Дисковод: Optiarc BD ROM BC-5500A Adapter: 0 ID: 0

Режим чтения : Достоверность
Использование точного потока : Да
Отключение кэша аудио : Да
Использование указателей C2 : Нет

Коррекция смещения при чтении : 48
Способность читать области Lead-in и Lead-out : Нет
Заполнение пропущенных сэмплов тишиной : Да
Удаление блоков с тишиной в начале и конце : Нет
При вычислениях CRC использовались нулевые сэмплы : Да
Интерфейс : Встроенный Win32-интерфейс для Win NT/2000

Выходной формат : Monkey's Audio (без потерь)
Выбранный битрейт : Extra High Lossless Compression
Качество : Высокий
Добавление ID3-тэга : Да
Утилита сжатия : C:\Program Files (x86)\Monkey's Audio\MAC.exe

TOC извлечённого CD

Трек | Старт | Длительность | Начальный сектор | Конечный сектор
---------------------------------------------------------------------
1 | 0:00.00 | 4:32.00 | 0 | 20399
2 | 4:32.00 | 4:40.01 | 20400 | 41400
3 | 9:12.01 | 3:45.00 | 41401 | 58275
4 | 12:57.01 | 2:32.00 | 58276 | 69675
5 | 15:29.01 | 3:12.00 | 69676 | 84075
6 | 18:41.01 | 3:16.00 | 84076 | 98775
7 | 21:57.01 | 3:25.05 | 98776 | 114155
8 | 25:22.06 | 4:03.00 | 114156 | 132380
9 | 29:25.06 | 3:16.00 | 132381 | 147080
10 | 32:41.06 | 3:24.00 | 147081 | 162380
11 | 36:05.06 | 3:09.00 | 162381 | 176555
12 | 39:14.06 | 4:15.00 | 176556 | 195680
13 | 43:29.06 | 3:59.69 | 195681 | 213674

Характеристики диапазона извлечения и сообщения об ошибках

Выбранный диапазон

Имя файла E:\Скрябін APE\Озимi люди (2002)\Скрябiн - Озимi люди.wav

Пиковый уровень 99.9 %
Качество диапазона 100.0 %
CRC копии 6D457552
Копирование... OK

Ошибок не произошло

AccurateRip: сводка

Трек 1 точное извлечение (доверие 1) [1035209D]
Трек 2 точное извлечение (доверие 1) [9A297AB1]
Трек 3 точное извлечение (доверие 1) [D9BA98B8]
Трек 4 точное извлечение (доверие 1) [A34B48B0]
Трек 5 точное извлечение (доверие 1) [6CBFE711]
Трек 6 точное извлечение (доверие 1) [DBCB447D]
Трек 7 точное извлечение (доверие 1) [315388A5]
Трек 8 точное извлечение (доверие 1) [7F8A45F0]
Трек 9 точное извлечение (доверие 1) [2B221A99]
Трек 10 точное извлечение (доверие 1) [61186B6C]
Трек 11 точное извлечение (доверие 1) [91178620]
Трек 12 точное извлечение (доверие 1) [D01BD41E]
Трек 13 точное извлечение (доверие 1) [17BB11F1]

Все треки извлечены точно

Конец отчёта
fooCDtect

fooCDtect - foobar2000 + auCDtect, baralgin.

auCDtect: CD records authenticity detector, version 0.8.2
Copyright (c) 2004 Oleg Berngardt. All rights reserved.
Copyright (c) 2004 Alexander Djourik. All rights reserved.

mode: 0

=======================================================
Track: 01 - Любити платити
Quality: CDDA, 100%
=======================================================
Track: 02 - Шукав свiй дiм
Quality: CDDA, 100%
=======================================================
Track: 03 - Машина часу
Quality: CDDA, 100%
=======================================================
Track: 04 - Нашi
Quality: CDDA, 99%
=======================================================
Track: 05 - Сам собi країна
Quality: CDDA, 100%
=======================================================
Track: 06 - АШ
Quality: CDDA, 100%
=======================================================
Track: 07 - Нова «статуя свободи»
Quality: CDDA, 100%
=======================================================
Track: 08 - Герой
Quality: CDDA, 100%
=======================================================
Track: 09 - Усталі
Quality: CDDA, 100%
=======================================================
Track: 10 - Я хочу бути духами
Quality: CDDA, 100%
=======================================================
Track: 11 - Олля
Quality: CDDA, 100%
=======================================================
Track: 12 - Дочка Україна
Quality: CDDA, 100%
=======================================================
Track: 13 - Любити платити («Буде» ремікс)
Quality: CDDA, 100%
=======================================================
Тривалість: 00:47:29
Мова: українська
Аудіо-кодек: APE
Бітрейт: 932 кб/с
Джерело: інтернет (присутні скани)
Додаткова інформація:
«Ози́мі лю́ди» — це альбом гурту «Скрябін», випущений у 2002. Альбом був записаний за підтримки «Агенства гуманітарних технологій» та особисто Володимира Грановського та Юхима Островського.
Стилістично альбом закріпив рух колективу у поп-рок напрямку, який розпочався ще на альбомі «Модна країна».
На пісні «Любити платити», «Шукав свій дім (зима)», «Герой» та «Усталі» були зняти кліпи.
З цим альбомом гурт, заручившись підтримкою лейблу Real Records, спробував вийти на російський ринок: кліп «Любити платити» був в ротації на місцевому MTV; однойменна пісня потрапила у збірку «Нашествие»; колектив виступав на кількох московських фестивалях — але прориву не сталося.


Якщо Ви справді бажаєте підтримати українське - після прослуховування, якщо музика вам сподобалась,
придбайте ліцензійний диск.
Підтримаймо вітчизняних виконавців!


Срібний реліз (на рейтинг впливає 50% завантаженого)
 Трекер:    Зареєстрований   

Завантажити / скачати українську музику



відео для новачків



 Зареєстрований:   2011-11-20 16:52
 Розмір:   319 MB 
 Оцінка музики:   8/10 (Голосів: 15)
   
hattori_hanzo 
Новенький


З нами з: 02.01.11
Востаннє: 03.12.16
Повідомлень: 12

2011-11-22 22:48  
Які ж Андрій писав раніше гарні пісні... Не те що зараз "маршрутка" і т.п...
Ваш часовий пояс: GMT + 2 Години

Нова тема   Відповісти