Завантажити та скачати торренти українською


Матриця: Трилогія / The Matrix Trilogy (1999-2003) 720p

Нові коментарі

Нова тема   Відповісти
Автор Повідомлення
Zeus62 
Відео Гуртом - команда HD
Відео Гуртом - команда HD


З нами з: 29.12.08
Востаннє: 16.11.16
Повідомлень: 330

2011-11-20 00:33  
Матриця: Трилогія / The Matrix: Trilogy (1999-2003) 720p



Жанр: драма, трилер, бойовик, фентезі
Країна: США

Кіностудія / кінокомпанія: Warner Brothers, Village Roadshow Pictures
Режисер: брати Ваховські
Актори: Кіану Рівз, Лоуренс Фішборн, Керрі-Енн Мос, Глорія Фостер, Джо Пантоліано, Маркус Чонг, Джуліан Араханга, Метт Доран, Белінда МакКлорі, Ентоні Рей Паркер
Матриця / The Matrix (1999) 720p

Матриця / The Matrix (1999) 720p



Жанр: драма, трилер, бойовик, фентезі
Країна: США



Кіностудія / кінокомпанія: Warner Brothers, Village Roadshow Pictures
Режисер: брати Ваховські
Актори: Кіану Рівз, Лоуренс Фішборн, Керрі-Енн Мос, Глорія Фостер, Джо Пантоліано, Маркус Чонг, Джуліан Араханга, Метт Доран, Белінда МакКлорі, Ентоні Рей Паркер

Сюжет:
Світ Матриці — це ілюзія, яка існує лише в вічному сні приреченого людства. Холодне майбутнє, в якому люди — всього лише батарейки в комп'ютерних системах.


Тривалість: 02:16:17
Якість:
Відео:
кодек:
розмір кадру: 1280 х 530
бітрейт: 4077 кб/с

Аудіо # 1:
мова: українська
переклад: багатоголосий закадровий
кодек: 5.1
бітрейт: 448 кб/с
MediaInfo:

Format : Matroska
File size : 4.31 GiB
Duration : 2h 16mn
Overall bit rate : 4 530 Kbps
Writing application : HandBrake 0.9.5
Writing library : libmkv 0.6.4.1

Video
ID : 1
Format : AVC
Format/Info : Advanced Video Codec
Format profile : [email protected]
Format settings, CABAC : Yes
Format settings, ReFrames : 4 frames
Format settings, GOP : M=3, N=51
Codec ID : V_MPEG4/ISO/AVC
Duration : 2h 16mn
Bit rate : 4 077 Kbps
Width : 1 280 pixels
Height : 530 pixels
Display aspect ratio : 2.40:1
Frame rate mode : Variable
Frame rate : 23.976 fps
Color space : YUV
Chroma subsampling : 4:2:0
Bit depth : 8 bits
Scan type : Progressive
Bits/(Pixel*Frame) : 0.251
Stream size : 3.80 GiB (88%)
Writing library : core 112
Encoding settings : cabac=1 / ref=2 / deblock=1:0:0 / analyse=0x1:0x111 / me=hex / subme=6 / psy=1 / psy_rd=1,00:0,00 / mixed_ref=0 / me_range=16 / chroma_me=1 / trellis=0 / 8x8dct=0 / cqm=0 / deadzone=21,11 / fast_pskip=1 / chroma_qp_offset=-2 / threads=9 / sliced_threads=0 / nr=0 / decimate=1 / interlaced=0 / constrained_intra=0 / bframes=2 / b_pyramid=2 / b_adapt=1 / b_bias=0 / direct=1 / weightb=0 / open_gop=0 / weightp=2 / keyint=240 / keyint_min=23 / scenecut=40 / intra_refresh=0 / rc_lookahead=40 / rc=2pass / mbtree=1 / bitrate=4077 / ratetol=1,0 / qcomp=0,60 / qpmin=3 / qpmax=51 / qpstep=4 / cplxblur=20,0 / qblur=0,5 / ip_ratio=1,40 / aq=1:1,00
Language : English
Color primaries : BT.709-5, BT.1361, IEC 61966-2-4, SMPTE RP177
Transfer characteristics : BT.709-5, BT.1361
Matrix coefficients : BT.709-5, BT.1361, IEC 61966-2-4 709, SMPTE RP177

Audio
ID : 2
Format : AC-3
Format/Info : Audio Coding 3
Mode extension : CM (complete main)
Codec ID : A_AC3
Duration : 2h 16mn
Bit rate mode : Constant
Bit rate : 448 Kbps
Channel(s) : 6 channels
Channel positions : Front: L C R, Side: L R, LFE
Sampling rate : 48.0 KHz
Bit depth : 16 bits
Compression mode : Lossy
Stream size : 437 MiB (10%)
Language : Ukrainian
Скріншоти:

Матриця: Перезавантаження/ The Matrix: Reloaded (2003) 720p

Матриця: Перезавантаження/ The Matrix: Reloaded (2003) 720p



Жанр: драма, трилер, бойовик, фентезі
Країна: США



Кіностудія / кінокомпанія: Warner Brothers, Village Roadshow Pictures
Режисер: брати Ваховські
Актори: Кіану Рівз, Лоуренс Фішборн, Керрі-Енн Мос, Глорія Фостер, Джо Пантоліано, Маркус Чонг, Джуліан Араханга, Метт Доран, Белінда МакКлорі, Ентоні Рей Паркер

Сюжет:
Нео (Рівз), Морфей (Фішберн) та Трініті (Мосс) намагаються захистити підземне місто Зіон - останню схованку людей, про існування якої нарешті дізнались безжалісні машини. Для цього героям потрібно проникнути у світ Матриці і перезавантажити її...
Перша "Матриця" зібрала у світовому прокаті понад 450 млн. доларів. Тому продовження фантастичного бойовика братів Вачовскі з самого початку вважались у Голлівуді "суперпроектами". Підготовка до зйомок тривала півроку. Актори чотири місяці вчилися володіти власним тілом та зброєю, потім три тижні тренувалися з 12 постановниками трюків.


Тривалість: 02:18:15
Якість:
Відео:
кодек:
розмір кадру: 1280 х 530
бітрейт: 3641 кб/с

Аудіо # 1:
мова: українська
переклад: багатоголосий закадровий
кодек: 5.1
бітрейт: 448 кб/с

Аудіо # 2:
мова: українська
переклад: багатоголосий закадровий
кодек: 5.1
бітрейт: 448 кб/с
MediaInfo:

Format : Matroska
File size : 4.39 GiB
Duration : 2h 18mn
Overall bit rate : 4 545 Kbps
Writing application : HandBrake 0.9.5
Writing library : libmkv 0.6.4.1

Video
ID : 1
Format : AVC
Format/Info : Advanced Video Codec
Format profile : [email protected]
Format settings, CABAC : Yes
Format settings, ReFrames : 4 frames
Format settings, GOP : M=3, N=52
Codec ID : V_MPEG4/ISO/AVC
Duration : 2h 18mn
Bit rate : 3 641 Kbps
Width : 1 280 pixels
Height : 530 pixels
Display aspect ratio : 2.40:1
Frame rate mode : Variable
Frame rate : 23.976 fps
Color space : YUV
Chroma subsampling : 4:2:0
Bit depth : 8 bits
Scan type : Progressive
Bits/(Pixel*Frame) : 0.224
Stream size : 3.44 GiB (78%)
Writing library : core 112
Encoding settings : cabac=1 / ref=2 / deblock=1:0:0 / analyse=0x1:0x111 / me=hex / subme=6 / psy=1 / psy_rd=1,00:0,00 / mixed_ref=0 / me_range=16 / chroma_me=1 / trellis=0 / 8x8dct=0 / cqm=0 / deadzone=21,11 / fast_pskip=1 / chroma_qp_offset=-2 / threads=9 / sliced_threads=0 / nr=0 / decimate=1 / interlaced=0 / constrained_intra=0 / bframes=2 / b_pyramid=2 / b_adapt=1 / b_bias=0 / direct=1 / weightb=0 / open_gop=0 / weightp=2 / keyint=240 / keyint_min=23 / scenecut=40 / intra_refresh=0 / rc_lookahead=40 / rc=2pass / mbtree=1 / bitrate=3641 / ratetol=1,0 / qcomp=0,60 / qpmin=3 / qpmax=51 / qpstep=4 / cplxblur=20,0 / qblur=0,5 / ip_ratio=1,40 / aq=1:1,00
Language : English
Color primaries : BT.709-5, BT.1361, IEC 61966-2-4, SMPTE RP177
Transfer characteristics : BT.709-5, BT.1361
Matrix coefficients : BT.709-5, BT.1361, IEC 61966-2-4 709, SMPTE RP177

Audio #1
ID : 2
Format : AC-3
Format/Info : Audio Coding 3
Mode extension : CM (complete main)
Codec ID : A_AC3
Duration : 2h 18mn
Bit rate mode : Constant
Bit rate : 448 Kbps
Channel(s) : 6 channels
Channel positions : Front: L C R, Side: L R, LFE
Sampling rate : 48.0 KHz
Bit depth : 16 bits
Compression mode : Lossy
Stream size : 443 MiB (10%)
Language : Ukrainian

Audio #2
ID : 3
Format : AC-3
Format/Info : Audio Coding 3
Mode extension : CM (complete main)
Codec ID : A_AC3
Duration : 2h 18mn
Bit rate mode : Constant
Bit rate : 448 Kbps
Channel(s) : 6 channels
Channel positions : Front: L C R, Side: L R, LFE
Sampling rate : 48.0 KHz
Bit depth : 16 bits
Compression mode : Lossy
Stream size : 443 MiB (10%)
Language : Ukrainian
Скріншоти:

Матриця: Революція / The Matrix: Revolution (2003) 720p

Матриця: Революція / The Matrix: Revolution (2003) 720p



Жанр: драма, трилер, бойовик, фентезі
Країна: США



Кіностудія / кінокомпанія: Warner Brothers, Village Roadshow Pictures
Режисер: брати Ваховські
Актори: Кіану Рівз, Лоуренс Фішборн, Керрі-Енн Мос, Глорія Фостер, Джо Пантоліано, Маркус Чонг, Джуліан Араханга, Метт Доран, Белінда МакКлорі, Ентоні Рей Паркер

Сюжет:
Єдиній надії людства, обраному Нео, належить виконати свою місію. Відважного героя чекає подорож туди, куди не ступала нога людини - у самісіньке серце Міста Машин... В це самий час ці машини намагаються потрапити в самісіньке серце міста людей, які відчайдушно обороняються...


Тривалість: 02:09:17
Якість:
Відео:
кодек:
розмір кадру: 1280 х 530
бітрейт: 3980 кб/с

Аудіо # 1:
мова: українська
переклад: багатоголосий закадровий
кодек: 5.1
бітрейт: 448 кб/с

Аудіо # 2:
мова: українська
переклад: багатоголосий закадровий
кодек: 5.1
бітрейт: 448 кб/с
MediaInfo:

Format : Matroska
File size : 4.41 GiB
Duration : 2h 9mn
Overall bit rate : 4 884 Kbps
Writing application : HandBrake 0.9.5
Writing library : libmkv 0.6.4.1

Video
ID : 1
Format : AVC
Format/Info : Advanced Video Codec
Format profile : [email protected]
Format settings, CABAC : Yes
Format settings, ReFrames : 4 frames
Codec ID : V_MPEG4/ISO/AVC
Duration : 2h 9mn
Bit rate : 3 980 Kbps
Width : 1 280 pixels
Height : 530 pixels
Display aspect ratio : 2.40:1
Frame rate mode : Variable
Frame rate : 23.976 fps
Color space : YUV
Chroma subsampling : 4:2:0
Bit depth : 8 bits
Scan type : Progressive
Bits/(Pixel*Frame) : 0.245
Stream size : 3.51 GiB (80%)
Writing library : core 112
Encoding settings : cabac=1 / ref=2 / deblock=1:0:0 / analyse=0x1:0x111 / me=hex / subme=6 / psy=1 / psy_rd=1,00:0,00 / mixed_ref=0 / me_range=16 / chroma_me=1 / trellis=0 / 8x8dct=0 / cqm=0 / deadzone=21,11 / fast_pskip=1 / chroma_qp_offset=-2 / threads=9 / sliced_threads=0 / nr=0 / decimate=1 / interlaced=0 / constrained_intra=0 / bframes=2 / b_pyramid=2 / b_adapt=1 / b_bias=0 / direct=1 / weightb=0 / open_gop=0 / weightp=2 / keyint=240 / keyint_min=23 / scenecut=40 / intra_refresh=0 / rc_lookahead=40 / rc=2pass / mbtree=1 / bitrate=3980 / ratetol=1,0 / qcomp=0,60 / qpmin=3 / qpmax=51 / qpstep=4 / cplxblur=20,0 / qblur=0,5 / ip_ratio=1,40 / aq=1:1,00
Language : English
Color primaries : BT.709-5, BT.1361, IEC 61966-2-4, SMPTE RP177
Transfer characteristics : BT.709-5, BT.1361
Matrix coefficients : BT.709-5, BT.1361, IEC 61966-2-4 709, SMPTE RP177

Audio #1
ID : 2
Format : AC-3
Format/Info : Audio Coding 3
Mode extension : CM (complete main)
Codec ID : A_AC3
Duration : 2h 9mn
Bit rate mode : Constant
Bit rate : 448 Kbps
Channel(s) : 6 channels
Channel positions : Front: L C R, Side: L R, LFE
Sampling rate : 48.0 KHz
Bit depth : 16 bits
Compression mode : Lossy
Stream size : 414 MiB (9%)
Language : Ukrainian

Audio #2
ID : 3
Format : AC-3
Format/Info : Audio Coding 3
Mode extension : CM (complete main)
Codec ID : A_AC3
Duration : 2h 9mn
Bit rate mode : Constant
Bit rate : 448 Kbps
Channel(s) : 6 channels
Channel positions : Front: L C R, Side: L R, LFE
Sampling rate : 48.0 KHz
Bit depth : 16 bits
Compression mode : Lossy
Stream size : 414 MiB (9%)
Language : Ukrainian
Скріншоти:

Джерело: Власний ріп +
Особиста оцінка: 10 - без зайвих вагань рекомендую всім!


Срібний реліз (на рейтинг впливає 50% завантаженого)
 Трекер:    Зареєстрований   

Завантажити / скачати фільм українською



відео для новачків



 Зареєстрований:   2011-11-20 01:58
 Розмір:   13.11 GB 
 Оцінка фільму:   9.8/10 (Голосів: 76)
   
DejaVu 
Відео Гуртом - підтримка та поширення
Відео Гуртом - підтримка та поширення


З нами з: 20.12.10
Востаннє: 03.12.16
Повідомлень: 754

2011-11-20 00:51  
Zeus62 написано:
Сюжет: Комп'ютерний хакер дізнається від таємничих повстанців про його істинну природу реальності та роль у війні проти агентів.

Думаю це зайве, бо є сюжет в спойлері до кожного фільму.

Zeus62 
Відео Гуртом - команда HD
Відео Гуртом - команда HD


З нами з: 29.12.08
Востаннє: 16.11.16
Повідомлень: 330

2011-11-20 00:52  
Нема питань.Зараз виправлю.
DejaVu 
Відео Гуртом - підтримка та поширення
Відео Гуртом - підтримка та поширення


З нами з: 20.12.10
Востаннє: 03.12.16
Повідомлень: 754

2011-11-20 00:55  
Zeus62
За реліз дяка, а який приблизно розмір? (щоб знати скільки на "харді" місця звільняти, бо завантжити хочу)

Zeus62 
Відео Гуртом - команда HD
Відео Гуртом - команда HD


З нами з: 29.12.08
Востаннє: 16.11.16
Повідомлень: 330

2011-11-20 01:00  
DejaVu
Звільни приблизно 14-15 Гб.

Jatx_11 
Відео Гуртом - фільмокрай
Відео Гуртом - фільмокрай


З нами з: 20.04.11
Востаннє: 23.10.16
Повідомлень: 700

2012-02-16 14:27  
Zeus62 написано:
брати Ваховські

Здається по правельному брати Вачовські

Dim-ON 
VIP


З нами з: 02.06.10
Востаннє: 01.12.16
Повідомлень: 431

2012-02-16 15:12  
Jatx_11 написано:
Здається по правельному брати Вачовські


Wide grin

Jatx_11 
Відео Гуртом - фільмокрай
Відео Гуртом - фільмокрай


З нами з: 20.04.11
Востаннє: 23.10.16
Повідомлень: 700

2012-02-16 15:19  
Dim-ON

Wide grin

Невада 
Новенький


З нами з: 25.04.11
Востаннє: 30.11.16
Повідомлень: 5

2013-04-13 17:50  
дуже дякую за реліз!
а то приспічело переглянути ще раз.

і взагалі, це одна з найкращих трилогій, кожен раз переглядаючи находиш в сюжеті щось нове)

don pedro 
Попереджень: 1
Попереджень: 1 


З нами з: 29.06.11
Востаннє: 03.12.16
Повідомлень: 8722

2013-04-13 18:29  
Jatx_11
Dim-ON
Зараз вже не брати, а брат і сестра. О, прекрасний новий світ.

Did Kokos 
VIP


З нами з: 27.05.13
Востаннє: 03.12.16
Повідомлень: 347

2013-06-17 00:57  
don pedro
Можливо незабаром будуть сестри???

vector hottabko 
Новенький


З нами з: 12.11.13
Востаннє: 03.02.14
Повідомлень: 7

2013-11-17 20:15  
Скажіть, будь ласка, а це трилогія з укр. перекладом, так? Ну дурне питання на "Гуртом", але все ж. А чи можна буде якось вимкнути переклад і подивитися в оригіналі?
vector hottabko 
Новенький


З нами з: 12.11.13
Востаннє: 03.02.14
Повідомлень: 7

2013-11-18 00:07  
І дайте швидкості, БУДЬЛАСОЧКА!!!
Віктор 
Відео Гуртом - субтитрування
Відео Гуртом - субтитрування


З нами з: 09.01.10
Востаннє: 03.12.16
Повідомлень: 8662

2013-11-18 11:26  
vector hottabko написано:
А чи можна буде якось вимкнути переклад і подивитися в оригіналі?

Який ще ориґінал? У цій роздачі лише одна аудіо-доріжка - українська. Читайте опис перш ніж ставити питання, і буде вам щастя.
vector hottabko написано:
І дайте швидкості, БУДЬЛАСОЧКА!!!

Рейтинґ підніміть.

vector hottabko 
Новенький


З нами з: 12.11.13
Востаннє: 03.02.14
Повідомлень: 7

2013-11-20 00:30  
Віктор
Та я ж просто новенький. Скажіть, а де можна завантажити оригінальну доріжку для кожної частини?: Буду англійську по Матриці вивчати...-)

kino. 
Модератор відео


З нами з: 27.06.10
Востаннє: 03.12.16
Повідомлень: 2900

2013-11-20 06:17  
vector hottabko Завантажити можна звідси http://toloka.to/t14480, але після того як піднімете свій рейтинг, почитайте ЦЕ.
дяк 
Свій


З нами з: 30.10.10
Востаннє: 03.12.16
Повідомлень: 53

2014-08-26 05:18  
Ми живемо в матриці=)
Blade2010 
Новенький


З нами з: 12.04.10
Востаннє: 01.12.16
Повідомлень: 18

2015-01-22 16:45  
станьте на роздачу
Bod_zik99 
VIP


З нами з: 28.12.13
Востаннє: 03.12.16
Повідомлень: 817

2016-03-09 21:46  
Брати Вачовські змінили стать. Тепер вони сестри.
Ваш часовий пояс: GMT + 2 Години

Нова тема   Відповісти