Завантажити та скачати торренти українською


Смак ночі / Wir sind die Nacht (2010)

Нові коментарі

Нова тема   Відповісти
Автор Повідомлення
FaB0SS 
Відео Гуртом - фільмокрай
Відео Гуртом - фільмокрай


З нами з: 04.08.08
Востаннє: 07.12.16
Повідомлень: 522

2011-11-19 19:43  
Смак ночі / Wir sind die Nacht (2010)



Жанр: жахи, фентезі, драма
Країна: Німеччина



Режисер: Денніс Ганзель (Dennis Gansel)
Актори: Кароліне Херфурт (Karoline Herfurth), Ніна Хосс (Nina Hoss), Анна Фішер (Anna Fischer), Іван Шведоф (Ivan Shvedoff) та інші.

Сюжет:
Ліна - важкий підліток, вона не знаходить спільної мови з батьками й однолітками. Якось вона знайомиться з багатою і ефектною Луїзою - вампіром, лідером трійці, куди також належать відчайдушна Нора і млосна Шарлотта. Луїза вирішує залучити закомплексовану дівчину до своєї банди. Перед нею відчиняються двері у світ гламуру та безмежної свободи. Щоночі її нові подруги стають дедалі ненаситнішими, а кількість жертв вампірів нестримно зростає. Але коли за розслідування їхніх злочинів береться молодий поліцейський Том Сернері, настає час розплачуватися...


Тривалість: 1:39:42
Якість:
Відео:
кодек:
розмір кадру: 720 х 304
бітрейт: 1 621 кб/с

Аудіо:
мова: українська
переклад: двоголосий закадровий
кодек: 5.1
бітрейт: 448 кб/с

Джерело озвучення:

Скріншоти









Звіт MediaInfo
General
Complete name : D:\work\Смак ночі\Wir sind die Nacht (2010) [Hurtom] by FaB0SS.avi
Format : AVI
Format/Info : Audio Video Interleave
File size : 1.45 GiB
Duration : 1h 39mn
Overall bit rate : 2 078 Kbps
Movie name : Смак ночі / Wir sind die Nacht (2010) (реставрація звуку та створення 5.1 - FaB0SS)
Director : FaB0SS
Writing application : VirtualDubMod 1.5.10.2 (build 2540/release)
Writing library : VirtualDubMod build 2540/release
Copyright : Hurtom.com

Video
ID : 0
Format : MPEG-4 Visual
Format profile : Advanced [email protected]
Format settings, BVOP : 2
Format settings, QPel : No
Format settings, GMC : No warppoints
Format settings, Matrix : Custom
Codec ID :
Codec ID/Hint :
Duration : 1h 39mn
Bit rate : 1 621 Kbps
Width : 720 pixels
Height : 304 pixels
Display aspect ratio : 2.35:1
Frame rate : 24.000 fps
Color space : YUV
Chroma subsampling : 4:2:0
Bit depth : 8 bits
Scan type : Progressive
Compression mode : Lossy
Bits/(Pixel*Frame) : 0.309
Stream size : 1.13 GiB (78%)
Title : Смак ночі
Writing library : 1.2.1 (UTC 2008-12-04)

Audio
ID : 1
Format : AC-3
Format/Info : Audio Coding 3
Mode extension : CM (complete main)
Codec ID : 2000
Duration : 1h 39mn
Bit rate mode : Constant
Bit rate : 448 Kbps
Channel(s) : 6 channels
Channel positions : Front: L C R, Side: L R, LFE
Sampling rate : 48.0 KHz
Bit depth : 16 bits
Compression mode : Lossy
Stream size : 319 MiB (22%)
Alignment : Split accross interleaves
Interleave, duration : 42 ms (1.00 video frame)
Interleave, preload duration : 500 ms
Інформація про доріжку
Тут не просто вставлена доріжка від ТЕТу замість центрального каналу.
Доріжка була повністю перероблена, тепер її можна сміливо назвати реальним 5.1
ТЕТ дуже тихо озвучили цей фільм і в екшн сценах було погано чути переклад, тож усі фрази були підсилені на декілька дБ.
Також було підсилено центральний канал відносно інших каналів на 2 дБ.
Порівняння спектрів

Доріжка записана з ТЕТ


Готовий український центральний канал


Оригінальний центральний канал


Подяки:
Пану karvai0, за надану сиру доріжку

Джерело: by FaB0SS
Особиста оцінка: 9 - непоганий фільм на вампірську тематику.


 Трекер:    Зареєстрований   

Завантажити / скачати фільм українською



відео для новачків



 Зареєстрований:   2011-11-19 19:43
 Розмір:   1.45 GB 
 Оцінка фільму:   10/10 (Голосів: 14)
   
Інші релізи
   Смак ночі / Wir sind die Nacht (2010) 720p Ukr/Ger Anonymous  1 / 0   3.77 GB   2011-11-12 22:20 
   Смак ночі / Wir sind die Nacht (2010) Ukr/Ger Zetonik-z  1 / 0   2.01 GB   2011-11-11 16:00 
   Смак ночі / Wir sind die Nacht (2010) ger | sub Ukr Gashik  0 / 1   1.87 GB   2011-05-11 12:32 
Vampiro 
Свій


З нами з: 14.08.11
Востаннє: 30.11.16
Повідомлень: 67

2011-11-19 20:46  
"Вампірська тематика"? Треба глянути Happy
Якщо комусь ще до вподоби фільми з вампірами, раджу подивитись "Впусти мене", або прочитати однойменну книжку.

Ваш часовий пояс: GMT + 2 Години

Нова тема   Відповісти