Завантажити та скачати торренти українською


Хранителі / Watchmen (2009) 720p Ukr/Eng | Sub Ukr/Eng

Нові коментарі

Нова тема   Відповісти
Автор Повідомлення
leroykendall 
Модератор HD


З нами з: 03.01.11
Востаннє: 20.11.16
Повідомлень: 749

2011-11-19 03:03  
Хранителі / Watchmen (2009) 720p Ukr/Eng | Sub Ukr/Eng




«A world at peace. There had to be sacrifice.»


Жанр: фантастика, бойовик, трилер, драма
Країна: США





Кіностудія / кінокомпанія: Paramount Pictures | Warner Bros. Pictures
Режисер: Зак Снайдер (Zack Snyder)
Актори: Малін Акерман (Malin Akerman), Біллі Крудап (Billy Crudup), Метью Гуд (Matthew Goode), Джекі Ерл Хейлі (Jackie Earle Haley), Джефрі Дін Морган (Jeffrey Dean Morgan), Патрік Уілсон (Patrick Wilson), Карла Гуджино (Carla Gugino), Мет Фрюер (Matt Frewer), Стівен МакХетті (Stephen McHattie), Лаура Менел (Laura Mennell)

Сюжет:
Дія фільму відбувається в паралельній реальності, в Америці 1985 року. В цьому світі супергерої стали частиною буденного життя суспільства, а Годинник Судного Дня, зупинившись за п'ять хвилин до півночі, веде відлік до зіткнення провідних світових держав. Після вбивства одного зі своїх колишніх колег Роршак - супергерой, що ніколи не знімав маску, - рішуче налаштований влаштувати суд Лінча.
Він починає розслідування змови, що має на меті знищити або дискредитувати всіх супергероїв минулого і сьогодення. Він збирає своїх друзів - відставний легіон борців із злочинністю, але лише один з них володіє справжньою силою. Поступово Роршах усвідомлює лякаючий масштаб змови, пов'язаної із спільним минулим героїв і пророкує катастрофічні наслідки в майбутньому. Вони охороняють наш спокій, але хто оберігатиме нас від Хранителів?
Цікаві факти

Цікаві факти про фільм

  1. На роль Роршаха претендували Робін Вільямс, Даг Хатчінсон та Педді Консідайн. Адріана Вейдта могли зіграти Джуд Лоу та Том Круз. Кандидатами на роль Едварда Блейка були Рон Перлман і Томас Джейн.
  2. «Хранителі» - екранізація культового коміксу Алана Мура «Watchmen».
  3. За задумом режисера, в фільмі повинні були звучати винятково пісні відомих музикантів - Боба Ділана, Джимі Хендрікса та Саймона й Гарфункеля. Але потім Снайдер вирішив, що кіно «по картинках» не може обійтися без свіжого звуку.
  4. Сам автор першоджерела, Алан Мур, вважає, що комікс і кінематограф - речі несумісні. А самою ненависною екранізацією коміксів Мур вважає «300 спартанців», сценаристом і режисером якої і є Зак Снайдер.
MediaInfo

General
Complete name : W:\Watchmen.2009..720p\Watchmen (2009) [Ukr, Eng] 720p [Hurtom, HDCLUB] by leroykendall.mkv
Format : Matroska
File size : 8.45 GiB
Duration : 2h 42mn
Overall bit rate : 7 465 Kbps
Movie name : Watchmen (2009) [Ukr, Eng] 720p [Hurtom, HDCLUB] by leroykendall
Encoded date : UTC 2011-11-18 06:45:03
Writing application : mkvmerge v4.9.1 ('Ich will') зібрано Jul 11 2011 23:53:15
Writing library : libebml v1.2.1 + libmatroska v1.1.1

Video
ID : 1
Format : AVC
Format/Info : Advanced Video Codec
Format profile : [email protected]
Format settings, CABAC : Yes
Format settings, ReFrames : 8 frames
Muxing mode : Container [email protected]
Codec ID : V_MPEG4/ISO/AVC
Duration : 2h 41mn
Bit rate : 5 359 Kbps
Nominal bit rate : 5 505 Kbps
Width : 1 280 pixels
Height : 534 pixels
Display aspect ratio : 2.35:1
Frame rate : 23.976 fps
Resolution : 24 bits
Colorimetry : 4:2:0
Scan type : Progressive
Bits/(Pixel*Frame) : 0.327
Stream size : 6.06 GiB (72%)
Title : Watchmen (2009) [Ukr, Eng] 720p
Writing library : core 68 r1195M 5d75a9b
Encoding settings : cabac=1 / ref=8 / deblock=1:-3:-3 / analyse=0x3:0x113 / me=esa / subme=10 / psy_rd=1.1:0.0 / mixed_ref=1 / me_range=64 / chroma_me=1 / trellis=2 / 8x8dct=1 / cqm=0 / deadzone=21,11 / chroma_qp_offset=-2 / threads=12 / nr=0 / decimate=0 / mbaff=0 / bframes=5 / b_pyramid=1 / b_adapt=2 / b_bias=0 / direct=3 / wpredb=1 / keyint=250 / keyint_min=25 / scenecut=40 / rc=2pass / bitrate=5505 / ratetol=1.0 / qcomp=0.60 / qpmin=10 / qpmax=51 / qpstep=4 / cplxblur=20.0 / qblur=0.5 / ip_ratio=1.40 / pb_ratio=1.30 / aq=1:0.60

Audio #1
ID : 2
Format : AC-3
Format/Info : Audio Coding 3
Codec ID : A_AC3
Duration : 2h 42mn
Bit rate mode : Constant
Bit rate : 448 Kbps
Channel(s) : 6 channels
Channel positions : Front: L C R, Surround: L R, LFE
Sampling rate : 48.0 KHz
Stream size : 519 MiB (6%)
Title : 5.1 448 @ Дубляж
Language : Ukrainian

Audio #2
ID : 3
Format :
Format/Info : Digital Theater Systems
Codec ID : A_DTS
Duration : 2h 42mn
Bit rate mode : Constant
Bit rate : 1 510 Kbps
Channel(s) : 6 channels
Channel positions : Front: L C R, Surround: L R, LFE
Sampling rate : 48.0 KHz
Resolution : 24 bits
Stream size : 1.71 GiB (20%)
Title : 5.1 1536

Text #1
ID : 4
Format : UTF-8
Codec ID : S_TEXT/UTF8
Codec ID/Info : UTF-8 Plain Text
Title : написи та інше
Language : Ukrainian

Text #2
ID : 5
Format : UTF-8
Codec ID : S_TEXT/UTF8
Codec ID/Info : UTF-8 Plain Text
Title : повні
Language : Ukrainian

Text #3
ID : 6
Format : ASS
Codec ID : S_TEXT/ASS
Codec ID/Info : Advanced Sub Station Alpha
Тривалість: 02:42:06
Якість: 720p (ріп від: DON!)
Відео:
кодек:
розмір кадру: 1280x534
бітрейт: 5359 кб/с

Аудіо # 1:
мова: українська
переклад: професійний дубльований
кодек: 5.1
бітрейт: 448 кб/с

Аудіо # 2:
мова: англійська
переклад: оригінал
кодек: 5.1
бітрейт: 1510 кб/с

Переклад виконано і озвучено:


Субтитри# 1:
мова: українська (написи)
тип: програмні (м'які)
формат: *.srt

Субтитри# 2:
мова: українська (повні)
тип: програмні (м'які)
формат: *.srt

Субтитри# 3:
мова: англійська
тип: програмні (м'які)
формат: *.ass

Скріншоти :





Джерело: та

Особиста оцінка: 10 - без зайвих вагань рекомендую всім!


 Трекер:    Зареєстрований   

Завантажити / скачати фільм українською



відео для новачків



 Зареєстрований:   2011-11-19 03:03
 Розмір:   8.45 GB 
 Оцінка фільму:   8.9/10 (Голосів: 35)
   
leroykendall 
Модератор HD


З нами з: 03.01.11
Востаннє: 20.11.16
Повідомлень: 749

2011-11-19 03:23  
Цей реліз прийшов на заміну цьому:
Хранителі / Watchmen (2009) 720p
Який не роздавався вже майже 2 роки. Та його, власно кажучи, ніхто й не вантажив.

link_s 
Свій


З нами з: 04.03.10
Востаннє: 08.12.16
Повідомлень: 135

2011-11-19 13:24  
хороший фільм, дякую авторові за роздачу)
хто не бачив - рекомендую! специфічне, але хороше кіно...

leroykendall 
Модератор HD


З нами з: 03.01.11
Востаннє: 20.11.16
Повідомлень: 749

2011-11-19 13:33  
link_s написано:
дякую авторові за роздачу)

Прошу!
Є ще 1080р реліз: Хранителі / Watchmen(2009) 1080p Ukr/Eng | Sub Ukr/Eng, але з незрозумілих причин він чомусь не відображається у "Інші релізи".

Віктор 
Відео Гуртом - субтитрування
Відео Гуртом - субтитрування


З нами з: 09.01.10
Востаннє: 08.12.16
Повідомлень: 8663

2011-11-19 13:52  
leroykendall написано:
Є ще 1080р реліз: Хранителі / Watchmen(2009) 1080p Ukr/Eng | Sub Ukr/Eng, але з незрозумілих причин він чомусь не відображається у "Інші релізи".


Через відсутній пробіл Watchmen(2009) перед дужками

respect14 
VIP


З нами з: 26.01.11
Востаннє: 08.12.16
Повідомлень: 379

2011-11-19 14:04  
фільм не сподобався взагалі...
leroykendall 
Модератор HD


З нами з: 03.01.11
Востаннє: 20.11.16
Повідомлень: 749

2011-11-21 01:41  
respect14 написано:
фільм не сподобався взагалі...

Спробуйте спочатку прочитати сам комікс, а потім ще раз передивіться фільм.
Можливо ваша думка дещо зміниться.

Brainiac 
Частий відвідувач


З нами з: 06.12.09
Востаннє: 07.12.16
Повідомлень: 31

2013-06-23 18:42  
А чому без золота чи, хоча б, срібла?
Wizard_Harry 
Свій


З нами з: 11.10.13
Востаннє: 07.12.16
Повідомлень: 111

2015-03-04 10:17  
Прекрасний та незвичний фільм, щиро дякую)
Maters 
VIP


З нами з: 27.03.12
Востаннє: 08.12.16
Повідомлень: 1162

2016-02-07 21:31  
Опис - просто круть! Я вже фільм переглянув і розумію, що для того, хто тільки думає дивитись - це просто набір слів)))
Фільм не дуже. На любителя, я б сказав.

Ваш часовий пояс: GMT + 2 Години

Нова тема   Відповісти