Завантажити та скачати торренти українською


Пінгвіни містера Поппера / Mr. Popper's Penguins (2011) 720p-mini

Нові коментарі

Нова тема   Цю тему закрито
Останній раз роздавалося fwk (2016-11-02)
Автор Повідомлення
Anonymous 







2011-11-16 23:05  
Пінгвіни містера Поппера / Mr. Popper's Penguins (2011) 720p-mini



Жанр: комедія, сімейний
Країна: США



Кіностудія / кінокомпанія: wentieth Century Fox Film Corporation, Davis Entertainment, Centro Digital Pictures Ltd.
Режисер: Марк С. Вотерс
Актори: Джим Керрі, Карла Ґуджіно, Анджела Лансбері, Офелія Ловібонд, Медлін Керролл.

Сюжет:
Яку тільки свиню часом не підкладе доля! Щоправда, цього разу вона вирішила обійтися більш екзотичними тваринами.
Процвітаючий бізнесмен отримує у спадок шістьох пінгвінів і буквально закохується в них. Робота виявляється занедбаною, шикарні апартаменти перетворюються на засніжену обитель, справа навіть майже доходить до в'язниці. Але чи варто шкодувати, якщо взамін тобі відкривається такий незвичайний, і разом з тим такий справжній світ?


Тривалість: 01:34:21
Якість: 720p-mini
Відео:
кодек:
розмір кадру: 1280x696
бітрейт: 2 931 кб/с

Аудіо # 1:
мова: українська
переклад: професійний дубльований
кодек: 5.1
бітрейт: 448 кб/с

Джерело озвучення:
MediaInfo
General
Unique ID : 192908297001657097917916627182868691370 (0x9120C95CC2081C37A5CC7364472EF9AA)
Complete name : M:\Video\Фільми\Mr. Popper's Penguins (2011) [ukr] 720p-mini [ Hurtom ] by Vasua95.mkv
Format : Matroska
Format version : Version 2
File size : 2.23 GiB
Duration : 1h 34mn
Overall bit rate : 3 379 Kbps
Movie name : Rip by Blo
Encoded date : UTC 2011-11-19 22:41:23
Writing application : mkvmerge v4.9.1 ('Ich will') зібрано Jul 11 2011 23:53:15
Writing library : libebml v1.2.1 + libmatroska v1.1.1

Video
ID : 1
Format : AVC
Format/Info : Advanced Video Codec
Format profile : [email protected]
Format settings, CABAC : Yes
Format settings, ReFrames : 2 frames
Muxing mode : Header stripping
Codec ID : V_MPEG4/ISO/AVC
Duration : 1h 34mn
Bit rate : 2 931 Kbps
Width : 1 280 pixels
Height : 696 pixels
Display aspect ratio : 16:9
Original display aspect ratio : 16:9
Frame rate mode : Variable
Frame rate : 23.976 fps
Color space : YUV
Chroma subsampling : 4:2:0
Bit depth : 8 bits
Scan type : Progressive
Bits/(Pixel*Frame) : 0.137
Stream size : 1.89 GiB (85%)
Writing library : core 112 r1834 a51816a
Encoding settings : cabac=1 / ref=2 / deblock=1:0:0 / analyse=0x3:0x113 / me=hex / subme=6 / psy=1 / psy_rd=1.00:0.00 / mixed_ref=0 / me_range=16 / chroma_me=1 / trellis=0 / 8x8dct=1 / cqm=0 / deadzone=21,11 / fast_pskip=1 / chroma_qp_offset=-2 / threads=4 / sliced_threads=0 / nr=0 / decimate=1 / interlaced=0 / constrained_intra=0 / bframes=3 / b_pyramid=0 / b_adapt=1 / b_bias=0 / direct=3 / weightb=1 / open_gop=0 / weightp=2 / keyint=250 / keyint_min=25 / scenecut=40 / intra_refresh=0 / rc_lookahead=40 / rc=2pass / mbtree=1 / bitrate=2931 / ratetol=1.0 / qcomp=0.60 / qpmin=10 / qpmax=51 / qpstep=4 / cplxblur=20.0 / qblur=0.5 / ip_ratio=1.41 / aq=1:1.00
Language : Ukrainian

Audio
ID : 2
Format : AC-3
Format/Info : Audio Coding 3
Mode extension : CM (complete main)
Muxing mode : Header stripping
Codec ID : A_AC3
Duration : 1h 34mn
Bit rate mode : Constant
Bit rate : 448 Kbps
Channel(s) : 6 channels
Channel positions : Front: L C R, Side: L R, LFE
Sampling rate : 48.0 KHz
Bit depth : 16 bits
Compression mode : Lossy
Stream size : 302 MiB (13%)
Language : Ukrainian
Скріншоти:





Джерело: &
Особиста оцінка: 10 - без зайвих вагань рекомендую всім!


 Трекер:    Зареєстрований   

Завантажити / скачати фільм українською



відео для новачків



 Зареєстрований:   2011-11-20 12:09
 Розмір:   2.23 GB 
 Оцінка фільму:   7.7/10 (Голосів: 25)
   
BousVictor 
Новенький


З нами з: 14.08.11
Востаннє: 09.12.16
Повідомлень: 14

2011-11-17 14:19  
я його так довго чекавHappy)молодцІ,дякую)
AVBHS 
Поважний учасник


З нами з: 01.01.09
Востаннє: 18.11.16
Повідомлень: 180

2011-11-18 02:10  
Завтра - це коли? Хочу вантажити саме цей реліз, бо тут картинка більша. На екрані 55 це таки помітно.
Чекаю. І дякую, звичайно! Wink (2)

Jurgensson 
Новенький


З нами з: 08.04.11
Востаннє: 10.12.16
Повідомлень: 13

2011-11-18 15:37  
в мене на 22' помітно. уявляю, що на 55'. яке розширення там?
KoljaLevko 
Частий відвідувач


З нами з: 29.03.10
Востаннє: 08.12.16
Повідомлень: 47

2011-11-19 22:12  
здається мені, що автор забув про реліз, або запив Happy
Anonymous 







2011-11-19 23:24  
KoljaLevko
Я не запив просто з компом проблеми були завтра зранку 100% буде!

KoljaLevko 
Частий відвідувач


З нами з: 29.03.10
Востаннє: 08.12.16
Повідомлень: 47

2011-11-19 23:58  
та то я пожартував
bot 
робот


З нами з: 30.09.07
Востаннє: 26.05.05
Повідомлень: 16049

2011-11-20 12:09  
Тему перенесено з Анонси релізів від Відео Гуртом до форуму Художні фільми в HD


Vasua95

Z_E_R_O 
Відео Гуртом - фільмокрай
Відео Гуртом - фільмокрай


З нами з: 11.11.08
Востаннє: 26.11.16
Повідомлень: 387

2011-11-20 12:17  
під спойлером підправ додай післ [center ось це "]"
Anonymous 







2011-11-20 12:17  
Z_E_R_O
дякую не побачив

DiGen 
Модератор HD та координатор Команди HD
Модератор HD та координатор Команди HD


З нами з: 12.11.09
Востаннє: 24.06.13
Повідомлень: 1452

2011-11-20 14:11  
AVBHS, для Вашого телевізора є кращі варіанти:
toloka.to/t29842 та toloka.to/t29865

AVBHS 
Поважний учасник


З нами з: 01.01.09
Востаннє: 18.11.16
Повідомлень: 180

2011-11-22 00:45  
Дякую, DiGen, раніше цих релізів не бачив.
Ваш часовий пояс: GMT + 2 Години

Нова тема   Цю тему закрито