Завантажити та скачати торренти українською


Початковий код / Source Code (2011) 720p

Нові коментарі

Нова тема   Відповісти
Автор Повідомлення
Zeus62 
Відео Гуртом - команда HD
Відео Гуртом - команда HD


З нами з: 29.12.08
Востаннє: 16.11.16
Повідомлень: 330

2011-11-15 16:15  
Початковий код / Source Code (2011) 720p



Жанр: пригодницький, фантастика, трилер
Країна: США, Франція



Кіностудія / кінокомпанія: KPB Digital for Film,The Mark Gordon Company, Vendome Pictures, Vendome
Режисер: Дункан Джонс
Актори: Джейк Джиленгаал, Мішель Монаґан, Вєра Фарміґа, Джеффрі Райт, Расселл Пітерс

Сюжет:
Капітан американської армії Колтер Стівенс, який ще мить тому був в пустелі Афганістану, раптом прокидається від поштовху в чиказькому приміському потязі. Хоча всі довкола його, схоже, знають та сам він не розуміє, як він тут опинився. Проходить ще кілька хвилин і потяг вибухає. Наступне, що він побачив після смерті від вибуху - стіни камери та свого "контролера", який ставить йому незрозумілі питання, відповіді на які самі собою спливають у нього в пам'яті. Потроху Колтер дізнається, що став частиною секретного урядового проекту, технології якого дозволяють йому перенестись в тіло людини за вісім хвилин до її смерті. Першим завданням Стівенса стає знаходження смертника в тому самому потязі...


Тривалість: 01:33:12
Якість:
Відео:
кодек:
розмір кадру: 1280 х 720
бітрейт: 4910 кб/с

Аудіо:
мова: українська
переклад: професійний дубльований | Студія Діар
кодек:
бітрейт: 1510 кб/с
MediaInfo
Format : Matroska
File size : 4.18 GiB
Duration : 1h 33mn
Overall bit rate : 6 427 Kbps
Writing application : HandBrake 0.9.5
Writing library : libmkv 0.6.4.1

Video
ID : 1
Format : AVC
Format/Info : Advanced Video Codec
Format profile : [email protected]
Format settings, CABAC : Yes
Format settings, ReFrames : 4 frames
Codec ID : V_MPEG4/ISO/AVC
Duration : 1h 33mn
Bit rate : 4 910 Kbps
Width : 1 280 pixels
Height : 720 pixels
Display aspect ratio : 16:9
Frame rate mode : Variable
Frame rate : 23.976 fps
Color space : YUV
Chroma subsampling : 4:2:0
Bit depth : 8 bits
Scan type : Progressive
Bits/(Pixel*Frame) : 0.222
Stream size : 3.12 GiB (75%)
Writing library : core 112
Encoding settings : cabac=1 / ref=2 / deblock=1:0:0 / analyse=0x1:0x111 / me=hex / subme=6 / psy=1 / psy_rd=1,00:0,00 / mixed_ref=0 / me_range=16 / chroma_me=1 / trellis=0 / 8x8dct=0 / cqm=0 / deadzone=21,11 / fast_pskip=1 / chroma_qp_offset=-2 / threads=9 / sliced_threads=0 / nr=0 / decimate=1 / interlaced=0 / constrained_intra=0 / bframes=2 / b_pyramid=2 / b_adapt=1 / b_bias=0 / direct=1 / weightb=0 / open_gop=0 / weightp=2 / keyint=240 / keyint_min=23 / scenecut=40 / intra_refresh=0 / rc_lookahead=40 / rc=2pass / mbtree=1 / bitrate=4910 / ratetol=1,0 / qcomp=0,60 / qpmin=3 / qpmax=51 / qpstep=4 / cplxblur=20,0 / qblur=0,5 / ip_ratio=1,40 / aq=1:1,00
Language : English
Color primaries : BT.709-5, BT.1361, IEC 61966-2-4, SMPTE RP177
Transfer characteristics : BT.709-5, BT.1361
Matrix coefficients : BT.709-5, BT.1361, IEC 61966-2-4 709, SMPTE RP177

Audio
ID : 2
Format :
Format/Info : Digital Theater Systems
Codec ID : A_DTS
Duration : 1h 33mn
Bit rate mode : Constant
Bit rate : 1 510 Kbps
Channel(s) : 6 channels
Channel positions : Front: L C R, Side: L R, LFE
Sampling rate : 48.0 KHz
Bit depth : 16 bits
Compression mode : Lossy
Stream size : 1 007 MiB (23%)
Language : Ukrainian
Скріншоти:

Джерело: Власний ріп +
Особиста оцінка: 10 - без зайвих вагань рекомендую всім!


 Трекер:    Зареєстрований   

Завантажити / скачати фільм українською



відео для новачків



 Зареєстрований:   2011-11-15 16:15
 Розмір:   4.18 GB 
 Оцінка фільму:   9.9/10 (Голосів: 46)
   
Інші релізи
   Початковий код / Source Code (2011) 1080p 2xUkr/Eng | Sub Eng leroykendall  4 / 0   11.24 GB   2014-03-12 22:23 
   Початковий код / Source Code (2011) Blu-ray Remux 1080p 2xUkr/Eng | Sub Eng Dim-ON  1 / 0   22.35 GB   2012-10-13 14:55 
   Початковий код / Source Code (2011) 2xUkr/Eng | Sub Eng AngryBirdsUA  10 / 0   1.92 GB   2012-10-12 20:24 
   Початковий код / Source Code (2011) The_Marlboro  4 / 0   1.45 GB   2011-11-27 15:15 
   Початковий код / Source Code (2011) Ukr/Eng vamp69  5 / 0   1.74 GB   2011-11-14 20:34 
   Початковий код / Source Code (2011) 720p Ukr/Eng | Sub Eng Віктор  3 / 0   6.32 GB   2011-11-14 17:21 
DejaVu 
Відео Гуртом - підтримка та поширення
Відео Гуртом - підтримка та поширення


З нами з: 20.12.10
Востаннє: 03.12.16
Повідомлень: 754

2011-11-15 17:01  
Zeus62
Дай будь ласка дорогу окремо)

NeroZV 
Новенький


З нами з: 06.02.11
Востаннє: 01.09.13
Повідомлень: 5

2011-11-15 18:25  
ура! Дочекався! Спасибі!!))
Zeus62 
Відео Гуртом - команда HD
Відео Гуртом - команда HD


З нами з: 29.12.08
Востаннє: 16.11.16
Повідомлень: 330

2011-11-15 21:21  
NeroZV
Нема за що)

DejaVu
Я кинув посилання на доріжку тобі в приват.

Virake 
Localize Team
Localize Team


З нами з: 07.07.09
Востаннє: 06.12.16
Повідомлень: 4061

2011-11-16 16:23  
фільм - шедевр. дуже сподобався. але кінець вийшов не дуже вдалий.
Зореліт 
VIP


З нами з: 18.09.10
Востаннє: 30.11.16
Повідомлень: 317

2011-11-16 19:15  
Спасибі, доведу брату, що український дабл цікавіший)
imonko 
Відео Гуртом - фільмокрай
Відео Гуртом - фільмокрай


З нами з: 20.07.08
Востаннє: 31.10.16
Повідомлень: 7309

2011-12-27 21:38  
Zeus62 написано:
був в пустелі Іраку

Афганістані, ляп в описі.

Kirin 
VIP


З нами з: 28.07.08
Востаннє: 06.12.16
Повідомлень: 257

2012-01-02 00:54  
хороший фільм, головне не забувати, що це фантастика Wink (1)
Condor_1984 
Новенький


З нами з: 24.10.08
Востаннє: 18.06.14
Повідомлень: 1

2012-01-05 21:19  
а можна і мені посилання на доріжку окремо?
Mike_ 
Новенький


З нами з: 19.08.11
Востаннє: 10.04.16
Повідомлень: 6

2012-01-05 22:16  
Фільм справді - дуже чудовий, але більше ніж 2 рази не подивився б.
Virake 
Localize Team
Localize Team


З нами з: 07.07.09
Востаннє: 06.12.16
Повідомлень: 4061

2012-01-06 00:05  
Mike_ написано:
але більше ніж 2 рази не подивився б.

для сучасних фільмів це вже немало.

tsobko 
Новенький


З нами з: 09.01.10
Востаннє: 02.12.16
Повідомлень: 10

2012-06-22 18:39  
Велике прохання до тих людей, хто вже завантажив цей фільм: Будьте ласкаві, викладіть де-небудь укр. доріжку. Дуже вдячний заздалегідь!
1792000 
Частий відвідувач


З нами з: 11.05.12
Востаннє: 17.02.16
Повідомлень: 27

2012-10-31 17:15  
заплутаний сюжет з першого разу важко зрозуміти що й до чого
Ваш часовий пояс: GMT + 2 Години

Нова тема   Відповісти