Завантажити та скачати торренти українською


Початковий код / Source Code (2011) 1080p 2xUkr/Eng | Sub Eng

Нові коментарі

Нова тема   Відповісти
Автор Повідомлення
leroykendall 
Модератор HD


З нами з: 03.01.11
Востаннє: 20.11.16
Повідомлень: 749

2011-11-15 01:36  
Початковий код / Source Code (2011) 1080p 2xUkr/Eng | Sub Eng




«Make every second count»


Жанр: пригодницький, фантастика, трилер
Країна: США, Франція





Кіностудія / кінокомпанія: KPB Digital for Film,The Mark Gordon Company, Vendome Pictures, Vendome
Режисер: Дункан Джонс (Duncan Jones)
Композитор: Кріс Бейкон (Chris Bacon)
Актори: Джейк Джиленгаал (Jake Gyllenhaal), Мішель Монаґан (Michelle Monaghan), Вєра Фарміґа (Vera Farmiga), Джеффрі Райт (Jeffrey Wright), Расселл Пітерс (Russell Peters)

Сюжет:
Капітан американської армії Колтер Стівенс, який ще мить тому був в пустелі Іраку, раптом прокидається від поштовху в чиказькому приміському потязі. Хоча всі довкола його, схоже, знають та сам він не розуміє, як він тут опинився. Проходить ще кілька хвилин і потяг вибухає. Наступне, що він побачив після смерті від вибуху - стіни камери та свого "контролера", який ставить йому незрозумілі питання, відповіді на які самі собою спливають у нього в пам'яті. Потроху Колтер дізнається, що став частиною секретного урядового проекту, технології якого дозволяють йому перенестись в тіло людини за вісім хвилин до її смерті. Першим завданням Стівенса стає знаходження смертника в тому самому потязі...
Цікаві факти

Цікаві факти про фільм

• На головну роль розглядався Тофер Ґрейс.
• Цікаво, що батька капітана Колтера Стівенса озвучує Скот Бакула - актор, відомий головною роллю в серіалі «Квантовий стрибок», що був знятий на ту ж тему, і основні стилістичні елементи якого, в точності повторюють, основні стилістичні елементи «Початкового коду».
• Пісня, яка стоїть на дзвінку у Крістіни - Chesney Hawkes - «The One and Only», вона ж грає на будильнику у Сема в іншому фільмі Дункана Джонса - «Місяць 2112».
• Бюджет - $32,000,000
MediaInfo
Код:
General
Unique ID                                : 239246998742715603746795659165539771327 (0xB3FD4BBFFE50EF61A813FF5F6B9023BF)
Complete name                            : V:\Source Code (2011) [2xUkr, Eng] 1080p [Hurtom] by leroykendall.mkv
Format                                   : Matroska
Format version                           : Version 4 / Version 2
File size                                : 11.2 GiB
Duration                                 : 1h 33mn
Overall bit rate                         : 17.3 Mbps
Movie name                               : Source Code (2011) [2xUkr, Eng] 1080p [Hurtom] by leroykendall
Encoded date                             : UTC 2014-03-12 05:50:15
Writing application                      : mkvmerge v6.2.0 ('Promised Land') built on Apr 28 2013 12:22:01
Writing library                          : libebml v1.3.0 + libmatroska v1.4.0
Attachment                               : Yes / Yes / Yes / Yes

Video
ID                                       : 1
Format                                   : AVC
Format/Info                              : Advanced Video Codec
Format profile                           : [email protected]
Format settings, CABAC                   : Yes
Format settings, ReFrames                : 4 frames
Codec ID                                 : V_MPEG4/ISO/AVC
Duration                                 : 1h 33mn
Bit rate                                 : 13.9 Mbps
Width                                    : 1 920 pixels
Height                                   : 1 080 pixels
Display aspect ratio                     : 16:9
Frame rate mode                          : Constant
Frame rate                               : 23.976 fps
Color space                              : YUV
Chroma subsampling                       : 4:2:0
Bit depth                                : 8 bits
Scan type                                : Progressive
Bits/(Pixel*Frame)                       : 0.279
Stream size                              : 8.81 GiB (78%)
Title                                    : Source Code (2011) [2xUkr, Eng] 1080p [Hurtom]
Writing library                          : core 114 r1924 08d04a4
Encoding settings                        : cabac=1 / ref=4 / deblock=1:-3:-3 / analyse=0x3:0x113 / me=umh / subme=10 / psy=1 / psy_rd=1.05:0.10 / mixed_ref=1 / me_range=48 / chroma_me=1 / trellis=2 / 8x8dct=1 / cqm=2 / deadzone=21,11 / fast_pskip=0 / chroma_qp_offset=-2 / threads=12 / sliced_threads=0 / nr=0 / decimate=1 / interlaced=0 / constrained_intra=0 / bframes=6 / b_pyramid=2 / b_adapt=2 / b_bias=0 / direct=3 / weightb=1 / open_gop=0 / weightp=2 / keyint=250 / keyint_min=23 / scenecut=40 / intra_refresh=0 / rc_lookahead=60 / rc=2pass / mbtree=1 / bitrate=13850 / ratetol=1.0 / qcomp=0.60 / qpmin=1 / qpmax=63 / qpstep=4 / cplxblur=20.0 / qblur=0.5 / vbv_maxrate=40000 / vbv_bufsize=40000 / nal_hrd=none / ip_ratio=1.40 / aq=2:0.80
Language                                 : English
Default                                  : Yes
Forced                                   : No

Audio #1
ID                                       : 2
Format                                   :
Format/Info                              : Digital Theater Systems
Mode                                     : 16
Format settings, Endianness              : Big
Codec ID                                 : A_DTS
Duration                                 : 1h 33mn
Bit rate mode                            : Constant
Bit rate                                 : 1 509 Kbps
Channel count                            : 6 channels
Channel positions                        : Front: L C R, Side: L R, LFE
Sampling rate                            : 48.0 KHz
Bit depth                                : 16 bits
Compression mode                         : Lossy
Stream size                              : 1 006 MiB (9%)
Title                                    : 5.1 @ 1536 kbps - професійний дубльований; студія Діар
Language                                 : Ukrainian
Default                                  : Yes
Forced                                   : No

Audio #2
ID                                       : 3
Format                                   : AC-3
Format/Info                              : Audio Coding 3
Mode extension                           : CM (complete main)
Format settings, Endianness              : Big
Codec ID                                 : A_AC3
Duration                                 : 1h 33mn
Bit rate mode                            : Constant
Bit rate                                 : 192 Kbps
Channel count                            : 2 channels
Channel positions                        : Front: L R
Sampling rate                            : 48.0 KHz
Bit depth                                : 16 bits
Compression mode                         : Lossy
Stream size                              : 128 MiB (1%)
Title                                    : 2.0 @ 192 kbps - багатоголосий закадровий; 1+1
Language                                 : Ukrainian
Default                                  : No
Forced                                   : No

Audio #3
ID                                       : 4
Format                                   :
Format/Info                              : Digital Theater Systems
Mode                                     : 16
Format settings, Endianness              : Big
Codec ID                                 : A_DTS
Duration                                 : 1h 33mn
Bit rate mode                            : Constant
Bit rate                                 : 1 509 Kbps
Channel count                            : 6 channels
Channel positions                        : Front: L C R, Side: L R, LFE
Sampling rate                            : 48.0 KHz
Bit depth                                : 24 bits
Compression mode                         : Lossy
Delay relative to video                  : 11ms
Stream size                              : 1 006 MiB (9%)
Title                                    : 5.1 @ 1536 kbps
Language                                 : English
Default                                  : No
Forced                                   : No

Audio #4
ID                                       : 5
Format                                   : AC-3
Format/Info                              : Audio Coding 3
Format profile                           : Dolby Digital
Mode extension                           : CM (complete main)
Format settings, Endianness              : Big
Codec ID                                 : A_AC3
Duration                                 : 1h 33mn
Bit rate mode                            : Constant
Bit rate                                 : 192 Kbps
Channel count                            : 2 channels
Channel positions                        : Front: L R
Sampling rate                            : 48.0 KHz
Bit depth                                : 16 bits
Compression mode                         : Lossy
Stream size                              : 128 MiB (1%)
Title                                    : 2.0 @ 192 kbps - Commentary with Director Duncan Jones, Actor Jake Gyllenhaal, and Writer Ben Ripley
Language                                 : English
Default                                  : No
Forced                                   : No

Text #1
ID                                       : 6
Format                                   : ASS
Codec ID                                 : S_TEXT/ASS
Codec ID/Info                            : Advanced Sub Station Alpha
Compression mode                         : Lossless
Title                                    : Green Tebuchet MS font (ass format)
Language                                 : English
Default                                  : No
Forced                                   : No

Text #2
ID                                       : 7
Format                                   : PGS
Muxing mode                              : zlib
Codec ID                                 : S_HDMV/PGS
Codec ID/Info                            : The same subtitle format used on BDs/HD-DVDs
Title                                    : English - Commentary
Language                                 : English
Default                                  : No
Forced                                   : No

Menu
00:00:00.000                             : en:00:00:00.000
00:06:52.871                             : en:00:06:52.871
00:11:03.663                             : en:00:11:03.663
00:17:20.039                             : en:00:17:20.039
00:21:06.557                             : en:00:21:06.557
00:28:36.798                             : en:00:28:36.798
00:31:50.367                             : en:00:31:50.367
00:36:19.886                             : en:00:36:19.886
00:41:35.743                             : en:00:41:35.743
00:47:21.839                             : en:00:47:21.839
00:52:30.189                             : en:00:52:30.189
00:54:32.102                             : en:00:54:32.102
00:58:01.228                             : en:00:58:01.228
01:03:02.320                             : en:01:03:02.320
01:09:39.550                             : en:01:09:39.550
01:15:12.049                             : en:01:15:12.049
01:21:49.655                             : en:01:21:49.655
01:24:41.118                             : en:01:24:41.118
Тривалість: 01:33:12
Якість: 1080p (ріп від CHD)
Відео:
кодек:
розмір кадру: 1920x1080
бітрейт: 13,9 мб/с

Аудіо # 1:
мова: українська
переклад: професійний дубльований | Студія Діар
кодек: 5.1
бітрейт: 1536 кб/с

Аудіо # 2:
мова: українська
переклад: багатоголосий закадровий
кодек: 2.0
бітрейт: 192 кб/с

Аудіо # 3:
мова: англійська
переклад: оригінал
кодек: 5.1
бітрейт: 1536 кб/с

Аудіо # 4:
мова: англійська (коментарі)
кодек: 2.0
бітрейт: 192 кб/с

Субтитри# 1:
мова: англійська
тип: програмні (м'які)
формат: *.ass

Субтитри# 2:
мова: англійська до коментарів
тип: пререндерні
формат: *.pgs

Скріншоти :




Джерело:


 Трекер:    Зареєстрований   

Завантажити / скачати фільм українською



відео для новачків



 Зареєстрований:   2014-03-12 22:23
 Розмір:   11.24 GB 
 Оцінка фільму:   9.5/10 (Голосів: 25)
   
Інші релізи
   Початковий код / Source Code (2011) Blu-ray Remux 1080p 2xUkr/Eng | Sub Eng Dim-ON  2 / 0   22.35 GB   2012-10-13 14:55 
   Початковий код / Source Code (2011) 2xUkr/Eng | Sub Eng AngryBirdsUA  8 / 0   1.92 GB   2012-10-12 20:24 
   Початковий код / Source Code (2011) The_Marlboro  5 / 0   1.45 GB   2011-11-27 15:15 
   Початковий код / Source Code (2011) 720p Zeus62  2 / 0   4.18 GB   2011-11-15 16:15 
   Початковий код / Source Code (2011) Ukr/Eng vamp69  3 / 0   1.74 GB   2011-11-14 20:34 
   Початковий код / Source Code (2011) 720p Ukr/Eng | Sub Eng Віктор  2 / 0   6.32 GB   2011-11-14 17:21 
TARIK111 
Свій


З нами з: 22.05.09
Востаннє: 04.12.16
Повідомлень: 117

2011-11-15 02:26  
добре, що хоть цей фільм вийшов з українською доріжкою на bd, а то зараз багато фільмів йшло в нас у кінотеатрах українською, а ні на двд, а ні бд укр доріжки нема.
8530 
VIP


З нами з: 27.01.09
Востаннє: 23.11.16
Повідомлень: 494

2011-11-15 07:03  
поможу з роздачею
Віктор 
Відео Гуртом - субтитрування
Відео Гуртом - субтитрування


З нами з: 09.01.10
Востаннє: 09.12.16
Повідомлень: 8663

2011-11-15 12:00  
На бд цей фільм не вийшов повторюю в десяте.
fl_fl 
Відео Гуртом - фільмокрай
Відео Гуртом - фільмокрай


З нами з: 26.05.09
Востаннє: 09.12.16
Повідомлень: 3047

2011-11-15 12:37  
w2958l
Всім по-барабану, напевно))

leroykendall 
Модератор HD


З нами з: 03.01.11
Востаннє: 20.11.16
Повідомлень: 749

2014-03-12 22:25  

Увага!!! Торент оновлено.
Додано українську доріжку #2 від 1+1.
12.03.2014

Akc3nt57 
Свій


З нами з: 16.02.11
Востаннє: 22.11.16
Повідомлень: 130

2015-03-10 23:30  
Дуже цікавий фільм! Всім раджу, дякую за реліз!
Ваш часовий пояс: GMT + 2 Години

Нова тема   Відповісти