Завантажити та скачати торренти українською


VA - Чарівна скрипка. Композитор Ігор Поклад (1998) [FLAC] | Bard

Нові коментарі

Нова тема   Відповісти
Автор Повідомлення
pilipr 
Новенький


З нами з: 25.06.10
Востаннє: 04.09.16
Повідомлень: 10

2011-11-14 22:01  
VA - Чарівна скрипка. Композитор Ігор Поклад (1998) [FLAC] | Bard



Стиль: Bard, Pop
Країна, місто: Україна, Київ
Сайти: Офіційний сайт
Видавець: Росток Рекордз
Виконавці: VA
Пісні:
    1 Кохана (. Ані Лорак) 3:30
    2 Ой, летіли дикі гуси ( Р. Лижичко ) 3:16
    3 Доленько моя (В Шпортько ) 3:24
    4 Крила (Самая Т ) 5:06
    5 Ой, стояла хата (. «Два кольори» ) 4:47
    6 Наречена (. А Кравчук) 3:55
    7 Скрипка грає ( В Зінкевич ) 4:12
    8 Відьма ( О Азнобіна) 3:56
    9 Чарівна скрипка (Т Гвердцітелі ) 4:05
    10 Очі на піску (Т. Гвердцітелі ) 4:21
    11 Як мені болять мої пісні (Й. Кобзон ) 5:26
    12 Тиха вода ( Н.Донець ) 4:04
    13 Зелен клен (О Пекун ) 3:55
    14 Пісня про матір (О Романовська ) 3:49
    15 Тече вода ( С Ротару) 3:50
    16 Краю мій лелечий (С Ротару ) 4:00

Тривалість: 01:02:06
Мова: українська
Аудіо-кодек: FLAC
Бітрейт: 768 kBit/s
Джерело: власний ріп


Срібний реліз (на рейтинг впливає 50% завантаженого)
 Трекер:    Зареєстрований   

Завантажити / скачати українську музику



відео для новачків



 Зареєстрований:   2011-11-15 02:13
 Розмір:   399 MB 
 Оцінка музики:   9.9/10 (Голосів: 9)
   
ssTAss 
Модератор музики


З нами з: 05.07.08
Востаннє: 05.12.16
Повідомлень: 10941

2011-11-15 00:29  
pilipr написано:

Чарівна скрипка.flac 386 MB
10 Чарівна скрипка.log 6 KB
11 індивідуальні flac/Відьма .flac

поясніть, для чого і образом і потреково?

такий оф сайт прибрати (як і всю стрічку)
викладіть вміст лог-файлу під спойлер
додайте стрічку "джерело"

pilipr 
Новенький


З нами з: 25.06.10
Востаннє: 04.09.16
Повідомлень: 10

2011-11-15 01:04  
Я просто поставив обидві, видалити просто, може хтось краще любить потреково.
Цитата:
викладіть вміст лог-файлу під спойлер

Я не є певний що треба треба поставити з цього файлу. Посилаю цілий лог файл покажіть що докладно треба
xact Audio Copy V1.0 beta 3 from 29. August 2011


EAC extraction logfile from 14. November 2011, 13:36

- / Чарівна скрипка

Used drive : ASUS DRW-24B3ST Adapter: 0 ID: 1

Read mode : Secure
Utilize accurate stream : Yes
Defeat audio cache : No
Make use of C2 pointers : No

Combined read/write offset correction : 0
Overread into Lead-In and Lead-Out : No
Fill up missing offset samples with silence : Yes
Delete leading and trailing silent blocks : No
Null samples used in CRC calculations : Yes
Used interface : Native Win32 interface for Win NT & 2000

Used output format : User Defined Encoder
Selected bitrate : 768 kBit/s
Quality : High
Add ID3 tag : No
Command line compressor : C:\Program Files\Exact Audio Copy\Flac\flac.exe
Additional command line options : -6 -V -T "ARTIST=%artist%" -T "TITLE=%title%" -T "ALBUM=%albumtitle%" -T "DATE=%year%" -T "TRACKNUMBER=%tracknr%" -T "GENRE=%genre%" -T "COMMENT=%comment%" -T "BAND=%albuminterpret%" -T "ALBUMARTIST=%albuminterpret%" -T "COMPOSER=%composer%" %haslyrics%--tag-from-file=LYRICS="%lyricsfile%"%haslyrics% -T "DISCNUMBER=%cdnumber%" -T "TOTALDISCS=%totalcds%" -T "TOTALTRACKS=%numtracks%" %hascover%--picture="%coverfile%"%hascover% %source% -o %dest%

TOC of the extracted CD

Track | Start | Length | Start sector | End sector
---------------------------------------------------------
1 | 0:00.00 | 3:30.36 | 0 | 15785
2 | 3:30.36 | 3:16.73 | 15786 | 30558
3 | 6:47.34 | 3:24.20 | 30559 | 45878
4 | 10:11.54 | 5:06.70 | 45879 | 68898
5 | 15:18.49 | 4:47.73 | 68899 | 90496
6 | 20:06.47 | 3:55.72 | 90497 | 108193
7 | 24:02.44 | 4:12.29 | 108194 | 127122
8 | 28:14.73 | 3:56.34 | 127123 | 144856
9 | 32:11.32 | 4:05.42 | 144857 | 163273
10 | 36:16.74 | 4:21.65 | 163274 | 182913
11 | 40:38.64 | 5:26.28 | 182914 | 207391
12 | 46:05.17 | 4:04.60 | 207392 | 225751
13 | 50:10.02 | 3:55.50 | 225752 | 243426
14 | 54:05.52 | 3:49.70 | 243427 | 260671
15 | 57:55.47 | 3:50.51 | 260672 | 277972
16 | 61:46.23 | 4:00.10 | 277973 | 295982

Range status and errors

Selected range

Filename C:\Users\pilip\Music\Чарівна скрипка.wav

Peak level 98.8 %
Extraction speed 9.2 X
Range quality 100.0 %
Test CRC 5F1BA7B5
Copy CRC 5F1BA7B5
Copy OK

No errors occurred

End of status report

ssTAss 
Модератор музики


З нами з: 05.07.08
Востаннє: 05.12.16
Повідомлень: 10941

2011-11-15 01:17  
pilipr написано:
може хтось краще любить потреково.

більшість не зауважить, завантаже цілий реліз і потім почнуться питання
давайте краще тільки образ залишіть і переробіть торрент-файл
(розрізати потім легше, кому треба)

pilipr 
Новенький


З нами з: 25.06.10
Востаннє: 04.09.16
Повідомлень: 10

2011-11-15 02:14  
Переробив торрент, залишив тільки образ
Ваш часовий пояс: GMT + 2 Години

Нова тема   Відповісти