Завантажити та скачати торренти українською


Великий / Big (1988) 720p Ukr/Eng | Sub Ukr/Eng

Нові коментарі

Нова тема   Відповісти
Автор Повідомлення
Віктор 
Відео Гуртом - субтитрування
Відео Гуртом - субтитрування


З нами з: 09.01.10
Востаннє: 11.12.16
Повідомлень: 8664

2011-11-13 22:21  
Великий / Big (1988) 720p Ukr/Eng | Sub Ukr/Eng




«Yesterday Josh Wanted Everything In Life - Girls...Money...Cars... Today, All His Wildest Dreams Have Come True!»


Жанр: комедія, родинний, драма, романтичний
Країна: США



Кіностудія / кінокомпанія: Gracie Films, Twentieth Century Fox Film Corporation
Режисер: Пенні Маршалл (Penny Marshall)
Композитор: Говард Шор (Howard Shore)
Актори: Том Генкс (Tom Hanks), Елізабет Перкінс (Elizabeth Perkins), Роберт Лоджа (Robert Loggia), Джон Герд (John Heard), Джаред Раштон (Jared Rushton) та інші.

Сюжет:
12-рiчний хлопчик мріє якнайшвидше стати дорослим, i одного ранку його бажання здійснюється: він прокидається i бачить, що став 30-рiчним чоловіком. Однак світ дорослих виявляється не таким простим, як здавалось хлопчині... Фантастична комедія, яка експлуатує тему, що стала популярною після успіху "Назад у майбутнє", - рiзноманiтнi неймовiрнi пригоди дітей та пiдлiткiв, які подорожують у часі, змінюють свій вік, або зустрічаються з матеріалізацією своїх фантазій. "Великий" теж мав великий успіх у прокаті, ставши одним з головних хiтiв 1988 р. Гумор у стрiчцi в порівнянні із сучасними комедіями може видатися майже інтелектуальним, i Генкс чудово зіграв головну роль, за що отримав свою першу номінацію на "Оскар"
Перемоги, номінації, цікаві факти

Оскар, 1989 рік
Номінації (2):
Найкраща чоловіча роль (Том Генкс)
Найкращий оригінальний сценарій

Золотий ґлобус, 1989 рік
Переможець (1):
Найкраща чоловіча роль (комедія або мюзикл) (Том Генкс)

Номінації (1):
Найкращий фільм (комедія або мюзикл)

Цікаві факти про фільм


• На роль дорослого Джо крім Тома Генкса претендували Роберт Де Ніро, Робін Вільямс, Гаррісон Форд.
• Роль Джо спочатку була запропонована Стіву Ґуттенберґу, але актор відхилив пропозицію.
• Девід Москов який грав роль Джоша одягав для зйомок контактні лінзи, щоб колір його очей збігався з кольором очей Тома Генкса.
• Крім «Великого» в цей же період вийшло ще цілих чотири фільми на тематику «обміну / заміни тіл». Ось їхні ориґінальні назви: 18 Again! (1988), Vice Versa (1988), Like Father Like Son (1987) and Dream a Little Dream (1989)
• Пенні Маршалл стала першою жінкою-режисером, чий фільм зібрав у прокаті більше ніж 100 мільйонів доларів.
• Фільм зайняв десяте місце в списку десяти найкращих фентезійних фільмів, складеним Американським Інститутом Кіно в червні 2008 року.
• Спочатку кінцівка замислювалася такою: Джош сидить за шкільною партою, і до класу заходить дівчинка-новачок, яка зовні схожа на Елізабет Перкінс, і глядачеві стає зрозуміло, що Сьюзан теж помолодшала. Але після тестових переглядів від неї відмовилися.
• Щоб дати уявлення Тому Генксу про те, як поводить себе 12-річна дитина, режисер зробив наступне: кожна сцена Генкса попередньо програвалася з Девідом Москов замість нього (Девід Москов грав юного Джошуа).
• Бюджет: $18,000,000.
MediaInfo

Код:
General
Unique ID                        : 180050557900162813071360200562243316231 (0x877479E173630D5095090418F144AA07)
Complete name                    : D:\HURTOM\Big (1988) [Ukr, Eng] 720p [Hurtom, HDCLUB].mkv
Format                           : Matroska
File size                        : 6.24 GiB
Duration                         : 1h 44mn
Overall bit rate                 : 8 571 Kbps
Movie name                       : Big (1988) [Ukr, Eng] 720p [Hurtom, HDCLUB]
Encoded date                     : UTC 2011-11-13 19:48:29
Writing application              : mkvmerge v5.0.1 ('Es ist Sommer') built on Oct  9 2011 11:55:43
Writing library                  : libebml v1.2.2 + libmatroska v1.3.0

Video
ID                               : 1
Format                           : AVC
Format/Info                      : Advanced Video Codec
Format profile                   : [email protected]
Format settings, CABAC           : Yes
Format settings, ReFrames        : 9 frames
Codec ID                         : V_MPEG4/ISO/AVC
Duration                         : 1h 44mn
Bit rate                         : 6 387 Kbps
Width                            : 1 280 pixels
Height                           : 692 pixels
Display aspect ratio             : 1.850
Frame rate                       : 23.976 fps
Color space                      : YUV
Chroma subsampling               : 4:2:0
Bit depth                        : 8 bits
Scan type                        : Progressive
Bits/(Pixel*Frame)               : 0.301
Stream size                      : 4.53 GiB (73%)
Title                            : Big (1988) [Ukr, Eng] 720p [Hurtom, HDCLUB]
Writing library                  : core 67 r1145M d2e1e1c
Encoding settings                : cabac=1 / ref=9 / deblock=1:-1:-2 / analyse=0x3:0x113 / me=umh / subme=9 / psy_rd=0.9:0.0 / mixed_ref=1 / me_range=32 / chroma_me=1 / trellis=2 / 8x8dct=1 / cqm=0 / deadzone=21,11 / chroma_qp_offset=-2 / threads=6 / nr=0 / decimate=0 / mbaff=0 / bframes=3 / b_pyramid=1 / b_adapt=2 / b_bias=0 / direct=3 / wpredb=1 / keyint=250 / keyint_min=25 / scenecut=40 / rc=2pass / bitrate=6387 / ratetol=1.0 / qcomp=0.60 / qpmin=10 / qpmax=51 / qpstep=4 / cplxblur=20.0 / qblur=0.5 / ip_ratio=1.40 / pb_ratio=1.30 / aq=1:0.80
Language                         : English

Audio #1
ID                               : 2
Format                           : AC-3
Format/Info                      : Audio Coding 3
Mode extension                   : CM (complete main)
Codec ID                         : A_AC3
Duration                         : 1h 44mn
Bit rate mode                    : Constant
Bit rate                         : 448 Kbps
Channel(s)                       : 6 channels
Channel positions                : Front: L C R, Side: L R, LFE
Sampling rate                    : 48.0 KHz
Bit depth                        : 16 bits
Compression mode                 : Lossy
Stream size                      : 334 MiB (5%)
Title                            : 5.1 @ 448 kbps - двоголосий закадровий
Language                         : Ukrainian

Audio #2
ID                               : 3
Format                           :
Format/Info                      : Digital Theater Systems
Codec ID                         : A_DTS
Duration                         : 1h 44mn
Bit rate mode                    : Constant
Bit rate                         : 1 510 Kbps
Channel(s)                       : 6 channels
Channel positions                : Front: L C R, Side: L R, LFE
Sampling rate                    : 48.0 KHz
Bit depth                        : 24 bits
Compression mode                 : Lossy
Stream size                      : 1.10 GiB (18%)
Title                            : 5.1 @ 1536 kbps
Language                         : English

Audio #3
ID                               : 4
Format                           : AC-3
Format/Info                      : Audio Coding 3
Mode extension                   : CM (complete main)
Codec ID                         : A_AC3
Duration                         : 1h 44mn
Bit rate mode                    : Constant
Bit rate                         : 224 Kbps
Channel(s)                       : 2 channels
Channel positions                : Front: L R
Sampling rate                    : 48.0 KHz
Bit depth                        : 16 bits
Compression mode                 : Lossy
Stream size                      : 167 MiB (3%)
Title                            : 2.0 @ 224 kbps - коментарі
Language                         : English

Text #1
ID                               : 5
Format                           : UTF-8
Codec ID                         : S_TEXT/UTF8
Codec ID/Info                    : UTF-8 Plain Text
Language                         : Ukrainian

Text #2
ID                               : 6
Format                           : UTF-8
Codec ID                         : S_TEXT/UTF8
Codec ID/Info                    : UTF-8 Plain Text
Language                         : English
Усі наявні релізи

720p Ukr/Eng | Sub Ukr/Eng (6.24 GB) - двоголосий закадровий запис звуку з телеканалу ICTV
Ukr/Eng | Sub Ukr/Eng (2.18 GB) - двоголосий закадровий запис звуку з телеканалу ICTV

Ролі озвучили:
Тривалість: 01:44:12
Якість: 720p
Відео:
кодек:
розмір кадру: 1280x692
бітрейт: 6387 кб/с

Аудіо # 1:
мова: українська
переклад: двоголосий закадровий запис з ICTV (+ по 1+1)
кодек: 5.1
бітрейт: 448 кб/с

Аудіо # 2:
мова: англійська
переклад: ориґінал
кодек: 5.1
бітрейт: 1536 кб/с

Аудіо # 3:
мова: англійська (коментарі)
кодек: 2.0
бітрейт: 224 кб/с

Субтитри # 1:
мова: українська
тип: програмні (м'які)
формат: *.srt
джерело субтитрів: DVD

Субтитри # 2:
мова: англійська
тип: програмні (м'які)
формат: *.srt

Скріншоти :





За створення доріжки 5.1 подяка Skiff-у,
за запис звуку з ТБ подяка drakon87 і Merdiff-у


Джерело: &
Особиста оцінка: 10 - без зайвих вагань рекомендую всім!


Срібний реліз (на рейтинг впливає 50% завантаженого)
 Трекер:    Зареєстрований   

Завантажити / скачати фільм українською



відео для новачків



 Зареєстрований:   2011-11-13 23:08
 Розмір:   6.24 GB 
 Оцінка фільму:   9.5/10 (Голосів: 24)
   
Інші релізи
   Великий / Big (1988) Ukr/Eng | Sub Eng omm  6 / 1   1.74 GB   2015-02-18 15:39 
   Блакитна безодня / Le grand bleu / The Big Blue [Director's Cut] (1988) 1080p 2xUkr/Eng | Sub Eng igor911  5 / 0   9.77 GB   2014-06-20 23:01 
   Блакитна безодня / Le grand bleu / The Big Blue [Director's Cut] (1988) 2xUkr ilu  1 / 0   2.19 GB   2013-08-29 22:58 
   Великий / Big (1988) - AVC Z_E_R_O  1 / 0   1.78 GB   2010-02-27 11:23 
   Великий / Big (1988) Ukr/Eng | Sub Ukr/Eng Skiff  5 / 0   2.18 GB   2010-02-26 13:38 
Jerod 
Новенький


З нами з: 22.08.09
Востаннє: 03.04.16
Повідомлень: 11

2011-11-14 07:16  
Фільм дуже класний на мій погляд !!!
Бачив неодноразово, лише приємні враженя !!!

Оповідач 
Поважний учасник


З нами з: 13.03.11
Востаннє: 11.12.16
Повідомлень: 196

2013-01-16 23:54  
Так справді!
І ще - класно що толока нагадує про старі фільми які вже забулись але однозначно йдуть в колекцію!!!

Ваш часовий пояс: GMT + 2 Години

Нова тема   Відповісти