Завантажити та скачати торренти українською


Сергій Бедусенко - Рок-опера "Енеїда" (2001) [FLAC] | Rock

Нові коментарі

Нова тема   Відповісти
Останній раз роздавалося Khtos (2015-06-07)
Автор Повідомлення
Khtos 
Свій


З нами з: 24.06.09
Востаннє: 02.12.16
Повідомлень: 107

2011-11-13 19:00  
Сергій Бедусенко - Рок-опера "Енеїда" (2001) [FLAC] | Rock



Стиль: Rock
Країна: Україна
Видавець: Ukrainian Records
Виконавці:
    Еней - Володимир Удовиченко
    Дідона - Таісія Повалій
    Венера - Лілія Сандулеса
    Зевс - Віталій Білоножко
    Охрим - Іво Бобул
    Латин - Анатолій Матвійчук
    Вулкан - Микита Джигурда
    Ворожка - Руся
    Юнона - Лідія Михайленко
    Низ - Анатолій Хостікоєв
    Евріал - Богдан Бенюк
    Сивіла - Наталя Сумська
    Турн, Тибр, Харон - Сергій Бедусенко
    Лавінія - Ірина Грей
    Горщик - Олег Кулік
    Евандр - Георгій Кухар
    Меркурій - Віталій Борисюк
    Еол - Віктор Конісевич
    Анхіз - Ігор Мельничук
    Козаки, латиняни, вої - актори Київських театрів

    Текст від автора читає
    - Богдан Ступка

Пісні:
    Дія І (CD І)
    1. Інтродукція. Пожар Трої
    2. Пісня мандрів. Вихід Юнони. Східний танець буря. Дует Венери і Зевса
    3. Зустріч Дідони з троянцями. Вихід Енея і загальний танець. Дует Енея і Дідони.
    4. Речитатив Зевса. Сцена з Меркурієм
    5. Пісня і самоспалення Дідони. Пісня Низа і Евріала.
    6. Гопак-сіртакі. Олімпська застольна. Монолог Анхіза. Дует Сивілли і Енея.
    7. Дует Харона і Сивілли. Пекельний танець. Хабанера Ворожки. Речитатив Горщика.

    Дія ІІ (CD ІІ)
    1. Пісня мандрів. Козацька бойова.
    2. Урок латинської. Палац Латина. Хвіт Евріала.
    3, Відповідь Латина. Пісня Юнони. Дует Енея і Лавінії. Вихід Турна і хор "Війна".
    4. Речитатив Тібра. Дует Енея і Евандра.
    5. Інтерлюдія. Дует Венери і Вулкана. Пісня Венери.
    6. Заклик Енея і Турна; бій. речитатив Зевса. Монолог Енея. Погребіння Паланта
    7. Дует Низа і Евріала. Останній бій; перемога.
    8. Інтерлюдія. Пісня любові. Фінал

Тривалість: 01:29:04 (44:32 + 44:32)
Мова: українська
Аудіо-кодек: FLAC
Бітрейт: 862 кб/с - диск 1, 846 кб/с - диск 2
Джерело: Власний ріп

Логи:
лог1
Exact Audio Copy V1.0 beta 3 from 29. August 2011

EAC extraction logfile from 9. March 2013, 15:04

Сергій Бедусенко. / Енеїда. Рок-опера. (CD I)

Used drive : hp DVD A DS8A5LH Adapter: 0 ID: 1

Read mode : Secure
Utilize accurate stream : Yes
Defeat audio cache : Yes
Make use of C2 pointers : No

Read offset correction : 6
Overread into Lead-In and Lead-Out : No
Fill up missing offset samples with silence : Yes
Delete leading and trailing silent blocks : No
Null samples used in CRC calculations : Yes
Used interface : Native Win32 interface for Win NT & 2000

Used output format : User Defined Encoder
Selected bitrate : 1024 kBit/s
Quality : High
Add ID3 tag : No
Command line compressor : C:\Program Files (x86)\Exact Audio Copy\Flac\flac.exe
Additional command line options : -V -8 -T "Date=%year%" -T "Genre=%genre%" %source%

TOC of the extracted CD

Track | Start | Length | Start sector | End sector
---------------------------------------------------------
1 | 0:00.00 | 3:22.15 | 0 | 15164
2 | 3:22.15 | 9:55.47 | 15165 | 59836
3 | 13:17.62 | 6:09.18 | 59837 | 87529
4 | 19:27.05 | 2:27.03 | 87530 | 98557
5 | 21:54.08 | 5:51.13 | 98558 | 124895
6 | 27:45.21 | 8:27.20 | 124896 | 162940
7 | 36:12.41 | 8:19.61 | 162941 | 200426

Range status and errors

Selected range

Filename D:\Music\Loseless\Eneida\Сергій Бедусенко. - Енеїда. Рок-опера. (CD I).wav

Peak level 99.9 %
Extraction speed 4.5 X
Range quality 100.0 %
Test CRC 60FF48AB
Copy CRC 60FF48AB
Copy OK

No errors occurred

AccurateRip summary

Track 1 not present in database
Track 2 not present in database
Track 3 not present in database
Track 4 not present in database
Track 5 not present in database
Track 6 not present in database
Track 7 not present in database

None of the tracks are present in the AccurateRip database

End of status report

==== Log checksum B31A9D647698EA6CBEA8E0E017D4D873BFE558C6D4532869A1D7D59F261D45A0 ====
лог 2

Exact Audio Copy V1.0 beta 3 from 29. August 2011

EAC extraction logfile from 9. March 2013, 15:36

Сергій Бедусенко / Енеїда. Рок-опера. (CD II)

Used drive : hp DVD A DS8A5LH Adapter: 0 ID: 1

Read mode : Secure
Utilize accurate stream : Yes
Defeat audio cache : Yes
Make use of C2 pointers : No

Read offset correction : 6
Overread into Lead-In and Lead-Out : No
Fill up missing offset samples with silence : Yes
Delete leading and trailing silent blocks : No
Null samples used in CRC calculations : Yes
Used interface : Native Win32 interface for Win NT & 2000

Used output format : User Defined Encoder
Selected bitrate : 1024 kBit/s
Quality : High
Add ID3 tag : No
Command line compressor : C:\Program Files (x86)\Exact Audio Copy\Flac\flac.exe
Additional command line options : -V -8 -T "Date=%year%" -T "Genre=%genre%" %source%

TOC of the extracted CD

Track | Start | Length | Start sector | End sector
---------------------------------------------------------
1 | 0:00.00 | 5:02.31 | 0 | 22680
2 | 5:02.31 | 4:26.13 | 22681 | 42643
3 | 9:28.44 | 8:05.53 | 42644 | 79071
4 | 17:34.22 | 3:04.64 | 79072 | 92935
5 | 20:39.11 | 5:20.40 | 92936 | 116975
6 | 25:59.51 | 8:22.01 | 116976 | 154626
7 | 34:21.52 | 5:22.49 | 154627 | 178825
8 | 39:44.26 | 4:48.34 | 178826 | 200459

Range status and errors

Selected range

Filename D:\Music\Loseless\Eneida\Сергій Бедусенко - Енеїда. Рок-опера. (CD II).wav

Peak level 98.6 %
Extraction speed 4.5 X
Range quality 100.0 %
Test CRC EB13F3DF
Copy CRC EB13F3DF
Copy OK

No errors occurred

AccurateRip summary

Track 1 not present in database
Track 2 not present in database
Track 3 not present in database
Track 4 not present in database
Track 5 not present in database
Track 6 not present in database
Track 7 not present in database
Track 8 not present in database

None of the tracks are present in the AccurateRip database

End of status report

==== Log checksum 931F78A372199C3B809D39FCA0EDB338E24C6463BC0428954E666ADED45B38C0 ====
mp3: https://toloka.to/t29734

Коментарі:
1. Особисто мені важко це назвати рок-оперою. І не тільки через склад виконавців.
2. Скани хотів зробити сам, але в такому випадку вони з'явились би через тиждень. Але знайшлась подібна роздача на російському торенті, тому скани взяв звідти


Срібний реліз (на рейтинг впливає 50% завантаженого)
 Трекер:    Зареєстрований   

Завантажити / скачати українську музику



відео для новачків



 Зареєстрований:   2013-03-09 18:33
 Розмір:   584 MB 
 Оцінка музики:   10/10 (Голосів: 1)
   
Ваш часовий пояс: GMT + 2 Години

Нова тема   Відповісти