Завантажити та скачати торренти українською


VA - Музика габсбургського Львова (2010) [FLAC] | Classic

Нові коментарі

Нова тема   Відповісти
Останній раз роздавалося AviatoR (2016-12-06)
Автор Повідомлення
ingwar 
Модератор літератури


З нами з: 08.03.08
Востаннє: 05.12.16
Повідомлень: 1200

2011-11-13 15:00  
VA - Музика габсбургського Львова (2010) [FLAC] | Classic



Стиль: Classic
Країна, місто: Україна, Львів
Видавець: Студія "МЕЛОС"
Виконавці:
Вокальний ансамбль Kalophonia, Львів:
тенори: Петро Швайковський, Володимир Гадзало, Роман Стельмащук
баси: Тарас Грудовий, Володимир Андрущак, Ігор Когут,
керівник: Тарас Грудовий
Звукорежисер: Богдан Стефура
Надія Величко (орган) - 7,
Мирослав Драґан та симфонічний оркестр INSO Львів (1-3),
Мирослав Драґан, симфонічний оркестр INSO Львів та Маріанна Лаба (4-6)

Пісні:
    01. Балевий полонез
    02. Adagio, II частина з Концерту для фортепіано з оркестром №1
    03. Рутенська (українська) арія з варіаціями для фортепіано
    04. З французької, за Ж.Ж.Руссо для високого голосу і фортепіано
    05. Поцілунок для високого голосу і фортепіано
    06. Меланхолійний полонез
    07. Canzona для органа
    08. Заспів, сл. В.Шашкевича
    09. До зорі, сл. І.Гушалевича
    10. Совіт дівиці, сл. І.Гушалевича
    11. Нинішня пісня, сл. В.Шашкевича
    12. На отході, сл. І.Гушалевича
    13. Битва, сл. І.Гушалевича
    14. По битві, сл. І.Гушалевича
    15. Ще не вмерла Україна, сл. П.Чубинського
    16. На погибель!, сл. В.Стебельського

Тривалість: 00:54:36
Мова:
4,5 - французька
8-16 - українська
решта - музика без співу
Аудіо-кодек: FLAC
Бітрейт: 629 кб/с
Джерело: Власний ріп
Додаткова інформація:
В 2010 році у Львові відбувся Восьмий фестиваль давньої музики «Музичний Львів і спадщина Габсбургів». Записи з концертів цього фестивалю склали програму диску «Музика габсбургського Львова».

До диску увійшли твори Франца Ксавера Моцарта (сина видатного Вольфганга Амадея) який понад 20 років мешкав у Львові, львівського композитора, диригента та педагога Мєчислава Солтиса, а також автора національного гімну та засновника першої української композиторської школи в Галичині Михайла Вербицького.

Оригінальне оформлення та макет диску розробила дизайн-студія «Бамбук».
Ініціатором та партнером видання диску «Музика габсбургського Львова», до якого увійшли «живі» записи з фестивальних концертів, виступила мережа АЗК «ОККО».
log
Exact Audio Copy V1.0 beta 2 from 29. April 2011

EAC extraction logfile from 7. November 2011, 14:09

- / Музика габсбургського Львова

Used drive : HL-DT-STDVDRAM GSA-T20L Adapter: 1 ID: 0

Read mode : Secure
Utilize accurate stream : Yes
Defeat audio cache : Yes
Make use of C2 pointers : Yes

Read offset correction : 667
Overread into Lead-In and Lead-Out : No
Fill up missing offset samples with silence : Yes
Delete leading and trailing silent blocks : No
Null samples used in CRC calculations : No
Used interface : Native Win32 interface for Win NT & 2000

Used output format : User Defined Encoder
Selected bitrate : 768 kBit/s
Quality : High
Add ID3 tag : No
Command line compressor : C:\Program Files\Exact Audio Copy\FLAC\FLAC.EXE
Additional command line options : -6 -V -T "ARTIST=%artist%" -T "TITLE=%title%" -T "ALBUM=%albumtitle%" -T "DATE=%year%" -T "TRACKNUMBER=%tracknr%" -T "GENRE=%genre%" -T "COMMENT=%comment%" -T "BAND=%albuminterpret%" -T "COMPOSER=%composer%" %haslyrics%--ta

TOC of the extracted CD

Track | Start | Length | Start sector | End sector
---------------------------------------------------------
1 | 0:00.00 | 4:35.63 | 0 | 20687
2 | 4:35.63 | 8:20.08 | 20688 | 58195
3 | 12:55.71 | 5:30.51 | 58196 | 82996
4 | 18:26.47 | 2:57.54 | 82997 | 96325
5 | 21:24.26 | 2:31.31 | 96326 | 107681
6 | 23:55.57 | 3:38.05 | 107682 | 124036
7 | 27:33.62 | 6:55.66 | 124037 | 155227
8 | 34:29.53 | 1:09.64 | 155228 | 160466
9 | 35:39.42 | 1:30.18 | 160467 | 167234
10 | 37:09.60 | 2:29.26 | 167235 | 178435
11 | 39:39.11 | 4:05.01 | 178436 | 196811
12 | 43:44.12 | 4:07.24 | 196812 | 215360
13 | 47:51.36 | 0:44.61 | 215361 | 218721
14 | 48:36.22 | 1:27.56 | 218722 | 225302
15 | 50:04.03 | 1:29.00 | 225303 | 231977
16 | 51:33.03 | 3:03.25 | 231978 | 245727

Range status and errors

Selected range

Filename C:\Users\IC\Music\Музика габсбургського Львова\Музика габсбургського Львова.wav

Peak level 100.0 %
Extraction speed 5.7 X
Range quality 100.0 %
Copy CRC 7AD88CE0
Copy OK

No errors occurred

AccurateRip summary

Track 1 not present in database
Track 2 not present in database
Track 3 not present in database
Track 4 not present in database
Track 5 not present in database
Track 6 not present in database
Track 7 not present in database
Track 8 not present in database
Track 9 not present in database
Track 10 not present in database
Track 11 not present in database
Track 12 not present in database
Track 13 not present in database
Track 14 not present in database
Track 15 not present in database
Track 16 not present in database

None of the tracks are present in the AccurateRip database

End of status report
Якщо Ви справді бажаєте підтримати українське - після прослуховування, якщо музика вам сподобалась, придбайте ліцензійний диск. Підтримаймо вітчизняних виконавців!


Срібний реліз (на рейтинг впливає 50% завантаженого)
 Трекер:    Зареєстрований   

Завантажити / скачати українську музику



відео для новачків



 Зареєстрований:   2011-11-13 15:00
 Розмір:   251 MB 
 Оцінка музики:   9.7/10 (Голосів: 21)
   
ssTAss 
Модератор музики


З нами з: 05.07.08
Востаннє: 06.12.16
Повідомлень: 10946

2011-11-14 03:22  
додайте вміст логу під спойлер
ingwar 
Модератор літератури


З нами з: 08.03.08
Востаннє: 05.12.16
Повідомлень: 1200

2011-11-14 07:47  
ssTAss написано:
додайте вміст логу під спойлер

додав

sko4 
Поважний учасник


З нами з: 23.06.08
Востаннє: 05.12.16
Повідомлень: 181

2011-11-14 11:03  
Тут не лише вокальний ансамбль, а й Надія Величко (орган) - 7, Мирослав Драґан та симфонічний оркестр INSO Львів (1-3), Мирослав Драґан, симфонічний оркестр INSO Львів та Маріанна Лаба (4-6). Тому мабуть вірніше вказати VA - Various Artists.
ingwar 
Модератор літератури


З нами з: 08.03.08
Востаннє: 05.12.16
Повідомлень: 1200

2011-11-14 13:22  
sko4 написано:
Тут не лише вокальний ансамбль

Дякую за поправку, змінив опис

sko4 
Поважний учасник


З нами з: 23.06.08
Востаннє: 05.12.16
Повідомлень: 181

2011-11-14 13:37  
Будь ласка Happy
Voanerges 
Новенький


З нами з: 24.01.10
Востаннє: 06.12.16
Повідомлень: 21

2011-11-15 15:10  
а як його на окремі треки розділити?
а то слухати яйось дуже вже незручно...

ssTAss 
Модератор музики


З нами з: 05.07.08
Востаннє: 06.12.16
Повідомлень: 10946

2011-11-15 18:08  
Voanerges написано:
а як його на окремі треки розділити?

http://toloka.to/t8404

Zlata_G 
Частий відвідувач


З нами з: 05.10.09
Востаннє: 05.12.16
Повідомлень: 26

2015-01-29 20:46  
Станьте, будь ласка, на роздачу!
Ваш часовий пояс: GMT + 2 Години

Нова тема   Відповісти