Завантажити та скачати торренти українською


G.I. Joe: Атака Кобри / G.I. Joe: The Rise of Cobra (2009) 720p-mini

Нові коментарі

Нова тема   Відповісти
Автор Повідомлення
Drool 
VIP


З нами з: 17.04.10
Востаннє: 10.12.16
Повідомлень: 1270

2011-11-13 02:23  
G.I. Joe: Атака Кобри / G.I. Joe: The Rise of Cobra (2009) 720p-mini

Жанр: фантастика, бойовик, трилер, пригоди
Країна: США, Чехия



Кіностудія / кінокомпанія: Paramount Pictures, Spyglass Entertainment, Hasbro, Di Bonaventura Pictures; мейджор - Universal Pictures International
Режисер: Стівен Соммерс
Актори: Ченнінг Татум, Джозеф Гордон-Левітт, Крістофер Екклстон, Сіенна Міллер, Джонатан Прайс, Арнольд Вослу, Марлон Уайанс, Денніс Куейд, Адевале Акіннуоє-Аґбадже, Лі Бьон Хон

Сюжет:
Високотехнологічний військовий підрозділ, що знаходиться в Європі, намагається протистояти злочинній організації Кобра, яка намагається захопити владу над світом.


Тривалість: 01:57:59
Якість: 720p
Відео:
кодек:
розмір кадру: 1280x528
бітрейт: 2700 кб/с

Аудіо:
мова: українська
переклад: професійний дубльований
кодек: 5.1
бітрейт: 448 кб/с

Джерело озвучення:
MediaInfo
General
Unique ID : 133047522508896780083352017094723213290 (0x64180550B353F9DC18FD832CB2C397EA)
Complete name : /mnt/disk_d/Video/Films/G.I.Joe.The.Rise.of.Cobra.2009.D.Ukr..720.mkv
Format : Matroska
File size : 2.59 GiB
Duration : 1h 57mn
Overall bit rate : 3 148 Kbps
Movie name : G.I. Joe: Атака Кобри / G.I. Joe: The Rise of Cobra (2009) 720 (video by 3Li)
Encoded date : UTC 2011-11-08 06:59:37
Writing application : mkvmerge v0.7.0 ('Turn It On Again') built on Mar 6 2008 05:36:23
Writing library : libebml v0.7.7 + libmatroska v0.8.1

Video
ID : 1
Format : AVC
Format/Info : Advanced Video Codec
Format profile : [email protected]
Format settings, CABAC : Yes
Format settings, ReFrames : 8 frames
Codec ID : V_MPEG4/ISO/AVC
Duration : 1h 57mn
Bit rate : 2 700 Kbps
Width : 1 280 pixels
Height : 528 pixels
Display aspect ratio : 2.40:1
Frame rate : 23.976 fps
Color space : YUV
Chroma subsampling : 4:2:0
Bit depth : 8 bits
Scan type : Progressive
Bits/(Pixel*Frame) : 0.167
Stream size : 2.17 GiB (84%)
Title : 720 (by 3Li)
Writing library : core 98 r1649 c54c47d
Encoding settings : cabac=1 / ref=8 / deblock=1:-3:-3 / analyse=0x3:0x113 / me=umh / subme=9 / psy=1 / psy_rd=0.60:0.00 / mixed_ref=1 / me_range=32 / chroma_me=1 / trellis=1 / 8x8dct=1 / cqm=0 / deadzone=21,11 / fast_pskip=0 / chroma_qp_offset=-2 / threads=3 / sliced_threads=0 / nr=0 / decimate=0 / interlaced=0 / constrained_intra=0 / bframes=4 / b_pyramid=2 / b_adapt=2 / b_bias=0 / direct=1 / weightb=1 / weightp=2 / keyint=250 / keyint_min=25 / scenecut=40 / intra_refresh=0 / rc_lookahead=40 / rc=2pass / mbtree=1 / bitrate=2700 / ratetol=1.0 / qcomp=0.60 / qpmin=10 / qpmax=51 / qpstep=4 / cplxblur=20.0 / qblur=0.5 / ip_ratio=1.40 / aq=1:1.00

Audio
ID : 2
Format : AC-3
Format/Info : Audio Coding 3
Mode extension : CM (complete main)
Codec ID : A_AC3
Duration : 1h 57mn
Bit rate mode : Constant
Bit rate : 448 Kbps
Channel(s) : 6 channels
Channel positions : Front: L C R, Side: L R, LFE
Sampling rate : 48.0 KHz
Bit depth : 16 bits
Compression mode : Lossy
Stream size : 378 MiB (14%)
Title : Ukrainian
Language : Ukrainian
Скріншоти




Походження: Відеоряд взято з іноземного ріпу від RG 3Li, на який було накладено українську звукову доріжку
Особиста оцінка: 8 - мені сподобалося


 Трекер:    Зареєстрований   

Завантажити / скачати фільм українською



відео для новачків



 Зареєстрований:   2011-11-13 02:23
 Розмір:   2.59 GB 
 Оцінка фільму:   9.4/10 (Голосів: 25)
   
DejaVu 
Відео Гуртом - підтримка та поширення
Відео Гуртом - підтримка та поширення


З нами з: 20.12.10
Востаннє: 10.12.16
Повідомлень: 754

2011-11-13 09:46  
Не сподобався мені цей фільм, дуже якось фантастично, не цікаво...
Але за реліз дякую!
Моя особиста оцінка до фільму 4/10:)

Drool 
VIP


З нами з: 17.04.10
Востаннє: 10.12.16
Повідомлень: 1270

2011-11-13 12:41  
DejaVu написано:
...дуже якось фантастично...

Так фантастика ж Wide grin Wide grin

Symkiv 
Новенький


З нами з: 06.04.13
Востаннє: 10.12.16
Повідомлень: 6

2016-05-04 16:41  
Дайте будь ласка закачати фільм =)

Дякую!

п.с. вже 90% є

Ваш часовий пояс: GMT + 2 Години

Нова тема   Відповісти