Завантажити та скачати торренти українською


Стирач / Eraser (1996) 720p Ukr/Eng | Sub Eng

Нові коментарі

Нова тема   Відповісти
Автор Повідомлення
Віктор 
Відео Гуртом - субтитрування
Відео Гуртом - субтитрування


З нами з: 09.01.10
Востаннє: 08.12.16
Повідомлень: 8663

2011-11-11 14:21  
Стирач / Eraser (1996) 720p Ukr/Eng | Sub Eng



«He will erase your past to protect your future.»


Жанр: бойовик, кримінальний, драма
Країна: США



Кіностудія / кінокомпанія: Kopelson Entertainment, Warner Bros. Pictures
Режисер: Чак Расселл (Chuck Russell)
Композитор: Алан Сільвестрі (Alan Silvestri)
Актори: Арнольд Шварценеґер (Arnold Schwarzenegger), Джеймс Каан (James Caan), Ванесса Вільямс (Vanessa Williams), Джеймс Кобурн (James Coburn), Роберт Пастореллі (Robert Pastorelli), Джеймс Кромвелл (James Cromwell), Денні Нуччі (Danny Nucci), Енді Романо (Andy Romano), Нік Чінланд (Nick Chinlund), Майкл Пападжон (Michael Papajohn), Джо Вітереллі (Joe Viterelli) та інші.

Сюжет:
Джон Крюґер «стирає» з минулого і сьогодення всі сліди людей, які знаходяться під охороною Програми Захисту Свідків. Йому потрібно захистити жінку, яка готова викрити операцію з продажу злочинцями нової супер-зброї. Крюґер повинен врятувати і її, і себе, і починається марафон не на життя, а на смерть, де йому доведеться стрибати з літака услід за парашутом, битися з алігаторами, долати надсучасні системи безпеки і протистояти найманцям з новітньою зброєю.
Номінації

Оскар, 1997 рік
Номінації (1):
Найкращий монтаж звуку

Премія каналу «MTV», 1997 рік
Номінації (1):
Найкраща екшн-сцена


• Бюджет - $100,000,000
MediaInfo

Код:

General
Unique ID                        : 216568168663692803874732019773574173483 (0xA2ED83192F80D392A47EE29BE3BB532B)
Complete name                    : D:\HURTOM\Eraser (1996) [Ukr, Eng] 720p [HDCLUB].mkv
Format                           : Matroska
File size                        : 6.17 GiB
Duration                         : 1h 54mn
Overall bit rate                 : 7 719 Kbps
Movie name                       : Eraser (1996) [Ukr, Eng] 720p [HDCLUB]
Encoded date                     : UTC 2011-11-11 14:26:50
Writing application              : mkvmerge v5.0.0 ('Die Wahre Liebe') built on Sep 25 2011 20:33:49
Writing library                  : libebml v1.2.2 + libmatroska v1.3.0

Video
ID                               : 1
Format                           : AVC
Format/Info                      : Advanced Video Codec
Format profile                   : [email protected]
Format settings, CABAC           : Yes
Format settings, ReFrames        : 9 frames
Codec ID                         : V_MPEG4/ISO/AVC
Duration                         : 1h 54mn
Bit rate                         : 4 700 Kbps
Width                            : 1 280 pixels
Height                           : 534 pixels
Display aspect ratio             : 2.35:1
Frame rate                       : 23.976 fps
Color space                      : YUV
Chroma subsampling               : 4:2:0
Bit depth                        : 8 bits
Scan type                        : Progressive
Bits/(Pixel*Frame)               : 0.287
Stream size                      : 3.64 GiB (59%)
Title                            : Eraser (1996) [Ukr, Eng] 720p [HDCLUB]
Writing library                  : core 102 r1666 d058f37
Encoding settings                : cabac=1 / ref=9 / deblock=1:-3:-3 / analyse=0x3:0x133 / me=umh / subme=9 / psy=1 / psy_rd=0.90:0.10 / mixed_ref=1 / me_range=40 / chroma_me=1 / trellis=2 / 8x8dct=1 / cqm=0 / deadzone=21,11 / fast_pskip=0 / chroma_qp_offset=-5 / threads=12 / sliced_threads=0 / nr=0 / decimate=1 / interlaced=0 / constrained_intra=0 / bframes=7 / b_pyramid=2 / b_adapt=2 / b_bias=0 / direct=3 / weightb=1 / open_gop=0 / weightp=2 / keyint=250 / keyint_min=25 / scenecut=40 / intra_refresh=0 / rc_lookahead=40 / rc=2pass / mbtree=0 / bitrate=4700 / ratetol=1.0 / qcomp=0.60 / qpmin=10 / qpmax=51 / qpstep=4 / cplxblur=20.0 / qblur=0.5 / vbv_maxrate=50000 / vbv_bufsize=50000 / ip_ratio=1.40 / pb_ratio=1.30 / aq=1:0.80 / nal_hrd=none
Language                         : English

Audio #1
ID                               : 2
Format                           :
Format/Info                      : Digital Theater Systems
Codec ID                         : A_DTS
Duration                         : 1h 54mn
Bit rate mode                    : Constant
Bit rate                         : 1 510 Kbps
Channel(s)                       : 6 channels
Channel positions                : Front: L C R, Side: L R, LFE
Sampling rate                    : 48.0 KHz
Bit depth                        : 24 bits
Compression mode                 : Lossy
Stream size                      : 1.21 GiB (20%)
Title                            : 5.1 @ 1536 kbps - двоголосий закадровий; Новий канал; Михайло Жонін і Олена Узлюк
Language                         : Ukrainian

Audio #2
ID                               : 3
Format                           :
Format/Info                      : Digital Theater Systems
Codec ID                         : A_DTS
Duration                         : 1h 54mn
Bit rate mode                    : Constant
Bit rate                         : 1 510 Kbps
Channel(s)                       : 6 channels
Channel positions                : Front: L C R, Side: L R, LFE
Sampling rate                    : 48.0 KHz
Bit depth                        : 24 bits
Compression mode                 : Lossy
Stream size                      : 1.21 GiB (20%)
Title                            : 5.1 @ 1536 kbps
Language                         : English

Text
ID                               : 4
Format                           : UTF-8
Codec ID                         : S_TEXT/UTF8
Codec ID/Info                    : UTF-8 Plain Text
Language                         : English

Menu
00:00:00.000                     : en:00:00:00.000
00:02:42.412                     : en:00:02:42.412
00:04:20.260                     : en:00:04:20.260
00:08:33.221                     : en:00:08:33.221
00:11:30.440                     : en:00:11:30.440
00:12:28.831                     : en:00:12:28.831
00:17:55.741                     : en:00:17:55.741
00:20:39.447                     : en:00:20:39.447
00:23:16.687                     : en:00:23:16.687
00:24:24.129                     : en:00:24:24.129
00:30:19.317                     : en:00:30:19.317
00:31:32.140                     : en:00:31:32.140
00:33:34.679                     : en:00:33:34.679
00:34:53.174                     : en:00:34:53.174
00:38:50.828                     : en:00:38:50.828
00:43:26.270                     : en:00:43:26.270
00:46:46.429                     : en:00:46:46.429
00:48:19.146                     : en:00:48:19.146
00:51:01.558                     : en:00:51:01.558
00:53:34.086                     : en:00:53:34.086
00:55:16.855                     : en:00:55:16.855
00:57:15.265                     : en:00:57:15.265
00:58:17.119                     : en:00:58:17.119
01:00:56.820                     : en:01:00:56.820
01:01:37.277                     : en:01:01:37.277
01:03:38.148                     : en:01:03:38.148
01:04:39.626                     : en:01:04:39.626
01:06:06.671                     : en:01:06:06.671
01:09:13.566                     : en:01:09:13.566
01:11:58.648                     : en:01:11:58.648
01:13:19.061                     : en:01:13:19.061
01:16:30.377                     : en:01:16:30.377
01:20:20.691                     : en:01:20:20.691
01:23:31.924                     : en:01:23:31.924
01:26:06.078                     : en:01:26:06.078
01:27:52.642                     : en:01:27:52.642
01:29:44.421                     : en:01:29:44.421
01:33:09.793                     : en:01:33:09.793
01:34:50.435                     : en:01:34:50.435
01:37:18.958                     : en:01:37:18.958
01:39:22.039                     : en:01:39:22.039
01:42:31.645                     : en:01:42:31.645
01:44:54.288                     : en:01:44:54.288
01:49:29.897                     : en:01:49:29.897
01:54:31.114                     : en:01:54:31.114
Тривалість: 01:54:31
Якість: 720р (PiPicK)
Відео:
кодек:
розмір кадру: 1280x534
бітрейт: 4700 кб/с

Аудіо # 1:
мова: українська
переклад: двоголосий закадровий Новий Канал (+ по ICTV) | Ролі озвучили: Михайло Жонін і Наталя Ярошенко
кодек: 5.1
бітрейт: 1536 кб/с (Доріжка отримана шляхом накладання чистих голосів на центральний канал. HDCLUB)

Аудіо # 2:
мова: англійська
переклад: ориґінал
кодек: 5.1
бітрейт: 1536 кб/с

Субтитри:
мова: англійська
тип: програмні (м'які)
формат: *.srt

Скріншоти:




Джерело:

Особиста оцінка: 8


Срібний реліз (на рейтинг впливає 50% завантаженого)
 Трекер:    Зареєстрований   

Завантажити / скачати фільм українською



відео для новачків



 Зареєстрований:   2011-11-11 17:02
 Розмір:   6.17 GB 
 Оцінка фільму:   9.1/10 (Голосів: 13)
   
Інші релізи
   Стирач / Eraser (1996) 2xUkr/Eng | Sub Eng robotron005  4 / 0   2.34 GB   2014-03-16 21:48 
bot 
робот


З нами з: 30.09.07
Востаннє: 26.05.05
Повідомлень: 16031

2011-11-11 17:01  
Тему перенесено з Анонси релізів від Відео Гуртом до форуму Художні фільми в HD


w2958l

antonik18 
VIP


З нами з: 12.03.10
Востаннє: 05.12.16
Повідомлень: 357

2011-11-11 20:56  
Хлопці ,дайте ще більше фільмів на українській мові. Дякую.
Віктор 
Відео Гуртом - субтитрування
Відео Гуртом - субтитрування


З нами з: 09.01.10
Востаннє: 08.12.16
Повідомлень: 8663

2011-11-11 21:04  
antonik18 написано:
Хлопці ,дайте ще більше фільмів на українській мові. Дякую.


На толоці, фільмів з українською мовою більше ніж будь-де. І цілого року певно не вистачить, якщо дивитись цілодобово.
Вам цього мало? Happy

leroykendall 
Модератор HD


З нами з: 03.01.11
Востаннє: 20.11.16
Повідомлень: 749

2011-11-12 07:58  
Як завжди за Шварца велика тобі подяка!
Очікуємо на швидку перевірку з медалькою :-) І будемо вантажити.

DejaVu 
Відео Гуртом - підтримка та поширення
Відео Гуртом - підтримка та поширення


З нами з: 20.12.10
Востаннє: 08.12.16
Повідомлень: 754

2011-11-12 08:42  
w2958l написано:
Вам цього мало? 

Ще треба, щоб фільм був цікавий)))

Віктор 
Відео Гуртом - субтитрування
Відео Гуртом - субтитрування


З нами з: 09.01.10
Востаннє: 08.12.16
Повідомлень: 8663

2011-11-12 11:08  
leroykendall написано:

Як завжди за Шварца велика тобі подяка!
Очікуємо на швидку перевірку з медалькою :-) І будемо вантажити.


Жди, так можна й усі жданики поїсти. Особливо в цьому розділі Happy

DejaVu написано:
Ще треба, щоб фільм був цікавий)))

На колір і смак товариш не всяк.)

Nikopol5 
Свій


З нами з: 05.10.10
Востаннє: 08.12.16
Повідомлень: 79

2013-06-17 14:39  
Може потрібно вказати, що переклад такий самий, як і у попередніх раздачах!? Бо там вказано, що запис зроблено з ICTV Wink (2)
Віктор 
Відео Гуртом - субтитрування
Відео Гуртом - субтитрування


З нами з: 09.01.10
Востаннє: 08.12.16
Повідомлень: 8663

2013-06-18 19:50  
Nikopol5 написано:
Може потрібно вказати, що переклад такий самий, як і у попередніх раздачах!? Бо там вказано, що запис зроблено з ICTV Wink (2)

Вказав Wink (1)

Ваш часовий пояс: GMT + 2 Години

Нова тема   Відповісти