Завантажити та скачати торренти українською


V/A - Концерт пам’яті Сергія Кузьмінського (Брати Гадюкіни) - Я вернувся домів (2011) DVD-5

Нові коментарі

Нова тема   Відповісти
Останній раз роздавалося v_jurist (2016-12-03)
Автор Повідомлення
LOLOLO 
Свій


З нами з: 04.03.10
Востаннє: 28.11.16
Повідомлень: 128

2011-11-09 15:17  
V/A - Концерт пам’яті Сергія Кузьмінського (Брати Гадюкіни) - Я вернувся домів (2011) DVD-5




Стиль: Rock Rock'n'Roll
Країна, місто: Україна
Сайти: www.gady.com.ua/
Виконавці: Бумбокс, ВВ, Гайдамаки, Димна Суміш, Кому Вниз, Mad Heads XL, Мандри, Океан Ельзи, Перкалаба, Піккардійська терція, Тарас Чубай, ТНМК, ТІК, The Вйо, Ляпіс Трубєцкой, Мертвий Півень, Брати Карамазови
Треклист
01. Брати Гадюкіни - "Карпати" програли в футбол
02. Перкалабра - Було не любити
03. Гайдамаки - Гей, Іване!
04. Мандри - Арівідерчі Рома
05. Mad Heads XL - Америка
06. Мертвий Півень - Джалізова дупа
07. Брати Гадюкіни - Роксоляна
08. ТІК - Міську вважай
09. Брати Гадюкіни - Наркомани на городі
10. Ляпіс Трубєцкой - Наркомани на городі
11. Брати Карамазови - Сорок пачок "Верховини"
12. Димна суміш - 117-та стаття
13. Брати Гадюкіни - Клофелін
14. Кому Вниз - Ми - хлопці з Бандерштадту
15. The Вйо - Місячне сяйво твого тіла
16. Плач Єремії - Дівчина з коломиї
17. Піккардійська терція - Жовті стрічки
18. Бумбокс - Звьоздочка моя
19. ТНМК - Файне місто Тернопіль
20. Океан Ельзи - Приїдь до мене у Мостиська
21. Воплі Відоплясова - Чуваки всьо чотко
22. Брати Гадюкіни - Ми ходили дили, дили
23. Брати Гадюкіни - Я вернувся домів
Тривалість: 01:48:23
Якість: DVD-5
Відео:
кодек: MPEG-2 DVD
розмір кадру: 720x576 (4:3)
бітрейт: 5 348 кб/с

Аудіо:
мова: українська
кодек: 2.0
бітрейт: 192 кб/с
"деталі"
Format : MPEG-PS
File size : 1 024 MiB
Duration : 25mn 19s
Overall bit rate : 5 652 Kbps

Video
ID : 224 (0xE0)
Format : MPEG Video
Format version : Version 2
Format profile : [email protected]
Format settings, BVOP : Yes
Format settings, Matrix : Default
Format settings, GOP : M=3, N=15
Duration : 25mn 19s
Bit rate mode : Variable
Bit rate : 5 348 Kbps
Nominal bit rate : 9 641 Kbps
Width : 720 pixels
Height : 576 pixels
Display aspect ratio : 4:3
Frame rate : 25.000 fps
Standard : PAL
Color space : YUV
Chroma subsampling : 4:2:0
Bit depth : 8 bits
Scan type : Progressive
Scan order : Bottom Field First
Bits/(Pixel*Frame) : 0.516
Stream size : 969 MiB (95%)

Audio
ID : 128 (0x80)
Format : AC-3
Format/Info : Audio Coding 3
Mode extension : CM (complete main)
Duration : 25mn 19s
Bit rate mode : Constant
Bit rate : 192 Kbps
Channel(s) : 2 channels
Channel positions : Front: L R
Sampling rate : 48.0 KHz
Video delay : -720ms
Stream size : 34.8 MiB (3%)

Menu
"Скріншоти"







Для зручності зробив двд з концертом - із меню, де можна вибирати кожну пісню окремо. Перевірено. Відтворюється на побутових ДВД-плеєрах. ДВД зроблено з цього релізу: http://toloka.to/t29287, за який велика вдячність fishi

Джерело:
Особиста оцінка: 10 - без зайвих вагань рекомендую всім!


Золотий реліз (завантажене не впливає на рейтинг)
 Трекер:    Зареєстрований   

Завантажити / скачати кліп українською



відео для новачків



 Зареєстрований:   2011-11-09 15:17
 Розмір:   4.3 GB 
 Оцінка кліпу:   10/10 (Голосів: 14)
   
vikro 
Частий відвідувач


З нами з: 04.04.08
Востаннє: 26.11.16
Повідомлень: 39

2011-12-20 22:35  
А я кліпи на ЕХ.ЮА качаю (( Дуже дякую за викладку.)
Hentaihunter 
VIP


З нами з: 16.08.08
Востаннє: 04.12.16
Повідомлень: 2150

2011-12-21 00:03  
Якщо оригінальне відео мало бітрейт 3604 кб/с, то тупе роздування до 9641 кб/с при конвертації аж няк його не поліпшить. До речі, остання цифра явно брехлива, оскільки разом зі звуком перевищує гранично можливий бітрейт DVD - 9800 кб/с (сумарний бітрейт - відео + звук). Модератору варто ознайомитися зі специфікаціми DVD і не давати золота без належної перевірки.
P.S. А взагалі цікаво, чому оригінальне відео з меншим бітрейтом важить у півтора рази більше? Але це вже питання до urij546724.

Lev 
VIP


З нами з: 14.10.09
Востаннє: 28.11.16
Повідомлень: 1819

2012-04-07 21:37  
а так виглядає лімітед едішн - 2 CD + DVD, хтось продає



і все б нічо, але не ясно звідки там другий аудіо-диск.

deepfree 
VIP


З нами з: 11.02.09
Востаннє: 03.12.16
Повідомлень: 263

2013-01-18 02:13  
Lev написано:
і все б нічо, але не ясно звідки там другий аудіо-диск.

Ну на один CD - влазить 74 хв. (1 год. 14 хв.), а концерт 1 год. 48 хв.

Цікаво, відео на DVD мабуть без лого каналу і кращої якості. Дивно як на Гуртом досі немає цього "лімітед едішена".

Форкуш 
VIP


З нами з: 03.02.10
Востаннє: 04.12.16
Повідомлень: 1535

2014-05-15 12:58  
Lev написано:
і все б нічо, але не ясно звідки там другий аудіо-диск.

Маю цю збірку.
Грабати в 320???

Alex 1973 
Новенький


З нами з: 03.04.15
Востаннє: 10.07.15
Повідомлень: 1

2015-04-03 12:23  
ДЯКУЮ!
Ваш часовий пояс: GMT + 2 Години

Нова тема   Відповісти