Завантажити та скачати торренти українською


Один вдома 1,2 / Home Alone 1,2 (1990,1992) 720p-mini Ukr | Sub Eng

Нові коментарі

Нова тема   Відповісти
Автор Повідомлення
Z_E_R_O 
Відео Гуртом - фільмокрай
Відео Гуртом - фільмокрай


З нами з: 11.11.08
Востаннє: 26.11.16
Повідомлень: 387

2011-11-09 14:10  
Один вдома 1,2 / Home Alone 1,2 (1990,1992) 720p-mini Ukr | Sub Eng



Один вдома / Home Alone (1990) 720p-mini Ukr | Sub Eng



Жанр: Комедія, сімейний
Країна: США



Кіностудія / кінокомпанія: 20th Century Fox Hughes Entertainment
Режисер: Кріс Коламбус
Актори: Маколей Калкін, Джо Пеші, Деніел Стерн, Джон Херд, Кетрін О'Хара, Хіллері Вулф, Енджела Гетлс, Леррі Хенкін, Робертс Блоссом, Девін Ретрей, Джері Бемен

Сюжет:
Американське сімейство відправляється з Чікаго до Європи, але в поспіху зборів безглузді батьки забувають дома ... одного зі своїх дітей. Юне створіння, проте, не губиться і демонструє чудеса винахідливості. І коли в будинок залазять грабіжники, їм доводиться не раз пошкодувати про зустріч з милим крихтою.
Відео
Тривалість: 01:42:54
Якість:
Відео:
кодек:
розмір кадру: 1280 х 688
бітрейт: 2 850 кб/с
Аудіо
Аудіо:
мова: українська
переклад: багатоголосий закадровий
кодек: 2.0
бітрейт: 192 кб/с

Джерело озвучення:
Субтитри
Субтитри:
мова: англійська
тип: програмні (м'які)
формат: *.srt
MediaInfo
General
Unique ID : 204574208467122597681185511683708323147 (0x99E78F346B81404687611C171F42854B)
Complete name : F:\Фільми\Комедії\Home Alone\Home Alone 720p-mini [by Z_E_R_O for Hurtom.com].mkv
Format : Matroska
File size : 2.05 GiB
Duration : 1h 42mn
Overall bit rate : 2 850 Kbps
Encoded date : UTC 2011-11-09 10:23:36
Writing application : mkvmerge v5.0.1 ('Es ist Sommer') built on Oct 9 2011 11:55:43
Writing library : libebml v1.2.2 + libmatroska v1.3.0

Video
ID : 2
Format : AVC
Format/Info : Advanced Video Codec
Format profile : [email protected]
Format settings, CABAC : Yes
Format settings, ReFrames : 3 frames
Format settings, GOP : M=4, N=24
Muxing mode : Header stripping
Codec ID : V_MPEG4/ISO/AVC
Duration : 1h 42mn
Bit rate mode : Variable
Bit rate : 2 671 Kbps
Maximum bit rate : 17.5 Mbps
Width : 1 280 pixels
Height : 688 pixels
Display aspect ratio : 1.860
Frame rate : 23.976 fps
Color space : YUV
Chroma subsampling : 4:2:0
Bit depth : 8 bits
Scan type : Progressive
Bits/(Pixel*Frame) : 0.127
Stream size : 1.87 GiB (91%)
Writing library : core 96 r1613 81e75e9
Encoding settings : cabac=1 / ref=1 / deblock=1:0:0 / analyse=0x3:0x3 / me=dia / subme=1 / psy=1 / psy_rd=0.00:0.00 / mixed_ref=0 / me_range=16 / chroma_me=1 / trellis=0 / 8x8dct=1 / cqm=0 / deadzone=21,11 / fast_pskip=1 / chroma_qp_offset=0 / threads=1 / sliced_threads=0 / slices=4 / nr=0 / decimate=1 / interlaced=0 / constrained_intra=0 / bframes=3 / b_pyramid=1 / b_adapt=1 / b_bias=0 / direct=1 / weightb=1 / weightp=0 / keyint=24 / keyint_min=1 / scenecut=40 / intra_refresh=0 / rc_lookahead=24 / rc=abr / mbtree=0 / bitrate=2671 / ratetol=1.0 / qcomp=0.60 / qpmin=0 / qpmax=51 / qpstep=4 / vbv_maxrate=17500 / vbv_bufsize=14500 / ip_ratio=1.10 / pb_ratio=1.10 / aq=1:1.00 / nal_hrd=vbr

Audio
ID : 1
Format : AC-3
Format/Info : Audio Coding 3
Mode extension : CM (complete main)
Muxing mode : Header stripping
Codec ID : A_AC3
Duration : 1h 42mn
Bit rate mode : Constant
Bit rate : 192 Kbps
Channel(s) : 2 channels
Channel positions : Front: L R
Sampling rate : 48.0 KHz
Bit depth : 16 bits
Compression mode : Lossy
Stream size : 141 MiB (7%)
Language : Ukrainian

Text
ID : 3
Format : UTF-8
Codec ID : S_TEXT/UTF8
Codec ID/Info : UTF-8 Plain Text
Language : English
Скріншоти:

Один вдома 2 / Home Alone 2 (1992) 720p-mini Ukr | Sub Eng



Жанр: Комедія, сімейний
Країна: США



Кіностудія / кінокомпанія: 20th Century Fox Hughes Entertainment
Режисер: Кріс Коламбус
Актори: Маколей Калкін, Джо Пеші, Деніел Стерн, Кетрін О'Хара, Джон Херд, Девін Ретрей, Хілларі Вульф, Морін Елізабет Шей, Майкл С. Мароні, Джеррі Беммен

Сюжет:
Найменший герой Америки влаштовуэ великий переполох в Нью Йорку! Кевін МакКалістер повернувся! Але тепер він один не удома, а в Нью Йорку і у нього досить грошей і кредитних карток, щоб перетворити Велике Яблуко на власний майданчик для ігор.
Але, як завжди, Кевіну не призначено бути довго одному, його старі приятелі шахраї Гарі і Марв втекли з в'язниці, куди вони попали стараннями Кевіна. І треба ж їм було попасти саме в те місто, де Кевін планував розважитися. Нові пастки вже чекають нащасних бандитів.
Відео
Тривалість: 02:00:01
Якість:
Відео:
кодек:
розмір кадру: 1280 х 692
бітрейт: 2 459 кб/с
Аудіо
Аудіо:
мова: українська
переклад: багатоголосий закадровий
кодек: 5.1
бітрейт: 384 кб/с

Джерело озвучення:
Субтитри
Субтитри:
мова: англійська
тип: програмні (м'які)
формат: *.srt
MediaInfo
General
Unique ID : 206214375250539261245606627501661620392 (0x9B2371ABACF4F9D5B2E38057225A08A8)
Complete name : F:\Фільми\Комедії\Home Alone\Home Alone 2 720p-mini [by Z_E_R_O for Hurtom.com].mkv
Format : Matroska
File size : 2.06 GiB
Duration : 2h 0mn
Overall bit rate : 2 459 Kbps
Encoded date : UTC 2011-11-09 10:33:25
Writing application : mkvmerge v5.0.1 ('Es ist Sommer') built on Oct 9 2011 11:55:43
Writing library : libebml v1.2.2 + libmatroska v1.3.0

Video
ID : 1
Format : AVC
Format/Info : Advanced Video Codec
Format profile : [email protected]
Format settings, CABAC : Yes
Format settings, ReFrames : 3 frames
Format settings, GOP : M=4, N=24
Muxing mode : Header stripping
Codec ID : V_MPEG4/ISO/AVC
Duration : 2h 0mn
Bit rate mode : Variable
Bit rate : 2 088 Kbps
Maximum bit rate : 17.5 Mbps
Width : 1 280 pixels
Height : 692 pixels
Display aspect ratio : 1.850
Frame rate : 23.976 fps
Color space : YUV
Chroma subsampling : 4:2:0
Bit depth : 8 bits
Scan type : Progressive
Bits/(Pixel*Frame) : 0.098
Stream size : 1.70 GiB (82%)
Title : Release for FLINTFILMS
Writing library : core 96 r1613 81e75e9
Encoding settings : cabac=1 / ref=1 / deblock=1:0:0 / analyse=0x3:0x3 / me=dia / subme=1 / psy=1 / psy_rd=0.00:0.00 / mixed_ref=0 / me_range=16 / chroma_me=1 / trellis=0 / 8x8dct=1 / cqm=0 / deadzone=21,11 / fast_pskip=1 / chroma_qp_offset=0 / threads=1 / sliced_threads=0 / slices=4 / nr=0 / decimate=1 / interlaced=0 / constrained_intra=0 / bframes=3 / b_pyramid=1 / b_adapt=1 / b_bias=0 / direct=1 / weightb=1 / weightp=0 / keyint=24 / keyint_min=1 / scenecut=40 / intra_refresh=0 / rc_lookahead=24 / rc=abr / mbtree=0 / bitrate=2088 / ratetol=1.0 / qcomp=0.60 / qpmin=0 / qpmax=51 / qpstep=4 / vbv_maxrate=17500 / vbv_bufsize=14500 / ip_ratio=1.10 / pb_ratio=1.10 / aq=1:1.00 / nal_hrd=vbr

Audio
ID : 2
Format : AC-3
Format/Info : Audio Coding 3
Mode extension : CM (complete main)
Muxing mode : Header stripping
Codec ID : A_AC3
Duration : 2h 0mn
Bit rate mode : Constant
Bit rate : 384 Kbps
Channel(s) : 6 channels
Channel positions : Front: L C R, Side: L R, LFE
Sampling rate : 48.0 KHz
Bit depth : 16 bits
Compression mode : Lossy
Stream size : 330 MiB (16%)
Language : Ukrainian

Text
ID : 3
Format : UTF-8
Codec ID : S_TEXT/UTF8
Codec ID/Info : UTF-8 Plain Text
Language : English
Скріншоти:
Джерело: &
Особиста оцінка: 10 - без зайвих вагань рекомендую всім!


Срібний реліз (на рейтинг впливає 50% завантаженого)
 Трекер:    Зареєстрований   

Завантажити / скачати фільм українською



відео для новачків



 Зареєстрований:   2011-11-09 14:10
 Розмір:   4.11 GB 
 Оцінка фільму:   9.9/10 (Голосів: 187)
   
LevchukTimur 
Новенький


З нами з: 19.08.11
Востаннє: 22.07.12
Повідомлень: 3

2011-12-04 21:44  
Скоро Новий Рік)))) Качаю))) Хай буде)))))) Дякую))
Vovka morkovka 
Свій


З нами з: 24.11.10
Востаннє: 07.12.16
Повідомлень: 71

2011-12-14 18:22  
Круто!!!
budko85 
Новенький


З нами з: 09.02.11
Востаннє: 18.08.16
Повідомлень: 6

2011-12-28 08:07  
Супер, спасибі всі у захваті, а малеча теж буде тепер дивитися
budko85 
Новенький


З нами з: 09.02.11
Востаннє: 18.08.16
Повідомлень: 6

2011-12-28 18:35  
В першій частині на 15 хвилині відсутній переклад, але тільки на деякий час (біля 10-20 секунд)
Віктор 
Відео Гуртом - субтитрування
Відео Гуртом - субтитрування


З нами з: 09.01.10
Востаннє: 09.12.16
Повідомлень: 8664

2011-12-28 18:44  
budko85 написано:
В першій частині на 15 хвилині відсутній переклад, але тільки на деякий час (біля 10-20 секунд)


Тут все є http://toloka.to/t30821 і навіть дві укр. доріжки в кожній з двох частин.)

budko85 
Новенький


З нами з: 09.02.11
Востаннє: 18.08.16
Повідомлень: 6

2011-12-28 18:52  
w2958l
Дякую за підказку, але мова йшла про ( 720p-mini Ukr), може колись виправлять.
Щераз спасибі за оперативну відповідь

Віктор 
Відео Гуртом - субтитрування
Відео Гуртом - субтитрування


З нами з: 09.01.10
Востаннє: 09.12.16
Повідомлень: 8664

2011-12-28 19:02  
budko85 написано:

w2958l
Дякую за підказку, але мова йшла про ( 720p-mini Ukr), може колись виправлять.


Будь ласка, а стосовно mini є квадрологія http://toloka.to/t31172 якість там буде навіть краще при масштабуванні ніж в цьому mini який ріпали не зрозуміло з чого, і параметри цього ріпу просто жах.

leroykendall 
Модератор HD


З нами з: 03.01.11
Востаннє: 20.11.16
Повідомлень: 749

2011-12-28 22:59  
w2958l написано:
стосовно mini є квадрологія

Вибачте, але в квадрології немаю сенсу, бо в третій і четвертій частинах низькі рейтинги, та й ті мені здається завищені. Реально третя частина 2/10, четверта - 1/10... не вище.

lewteege 
Новенький


З нами з: 09.02.09
Востаннє: 04.12.16
Повідомлень: 19

2011-12-29 17:04  
Не пішов у мене на HD-плеєрі цей "міні". Sad (1) Качатиму "максі".
Віктор 
Відео Гуртом - субтитрування
Відео Гуртом - субтитрування


З нами з: 09.01.10
Востаннє: 09.12.16
Повідомлень: 8664

2011-12-29 17:22  
lewteege написано:
Не пішов у мене на HD-плеєрі цей "міні".


Стверджувати не буду, але хоча б через це -
Z_E_R_O написано:
Muxing mode : Header stripping

Як вирішити цю проблему, можна почитати тут - http://toloka.to/t31095

Z_E_R_O 
Відео Гуртом - фільмокрай
Відео Гуртом - фільмокрай


З нами з: 11.11.08
Востаннє: 26.11.16
Повідомлень: 387

2012-01-11 01:22  
я прошу вибачення за реліз просто саме відео із доріжками я взяв з rutor.org від HQCLUB здається і замітив що немає перекладу але то таке думаю що це майже не замітно)
Sashike 
Новенький


З нами з: 16.11.12
Востаннє: 25.08.16
Повідомлень: 1

2012-12-31 09:14  
Найкращий сімейний фільм у Новий рік!
bogdan8844 
Новенький


З нами з: 12.11.11
Востаннє: 07.12.16
Повідомлень: 1

2013-10-23 09:00  
що з роздачою? чому не роздається зараз?
leroykendall 
Модератор HD


З нами з: 03.01.11
Востаннє: 20.11.16
Повідомлень: 749

2013-10-23 22:29  
bogdan8844 написано:
Рейтинг: 0.04

Тому що рейтинг замалий.

hodan.e.1994 
Новенький


З нами з: 11.06.12
Востаннє: 04.12.16
Повідомлень: 7

2013-11-24 00:25  
не можу докачати. немає швидкості. в чому діло?
kino. 
Модератор відео


З нами з: 27.06.10
Востаннє: 10.12.16
Повідомлень: 2900

2013-11-24 09:35  
hodan.e.1994 написано:
не можу докачати. немає швидкості. в чому діло?

Ваш рейтинг опустився нижче 0,15. Коли він підніметься до цього рівня, ви знову зможете завантажувати торрент-файли. Почитайте ЦЕ

postuluy 
Новенький


З нами з: 13.01.13
Востаннє: 07.12.16
Повідомлень: 4

2013-12-05 19:24  
старі добрі фільми, подивимось сім'єю під новий рік
dmitri.pilchen 
Новенький


З нами з: 19.01.12
Востаннє: 23.11.16
Повідомлень: 3

2013-12-15 21:00  
Дякуємо! Найкращий фільм у перед святкові дні!
mikssss 
Свій


З нами з: 14.02.10
Востаннє: 01.12.16
Повідомлень: 140

2013-12-21 20:18  
Дякую. Для новорічного настрою
ukdesign 
Забанено
Забанено


З нами з: 02.06.12
Востаннє: 17.10.14
Повідомлень: 55

2013-12-31 13:31  
Круто
<RAZOR> 
Новенький


З нами з: 09.07.11
Востаннє: 03.01.15
Повідомлень: 2

2015-01-03 02:01  
Вельми дякую!
Те що треба)

Mifee 
Новенький


З нами з: 23.11.13
Востаннє: 19.08.15
Повідомлень: 2

2015-01-06 13:53  
Цей реліз буде відтворюватися на старенькому DVD?
taraskill1 
Модератор відео


З нами з: 21.01.12
Востаннє: 10.12.16
Повідомлень: 909

2015-01-06 13:55  
Mifee написано:
Цей реліз буде відтворюватися на старенькому DVD?

цей ні, а от цей буде http://toloka.to/t31172

teko 
Новенький


З нами з: 07.01.10
Востаннє: 09.12.16
Повідомлень: 1

2015-01-08 17:57  
Гарний фільм, особливо на Різдво! ДЯКУЮ!
fobos2010 
Новенький


З нами з: 30.10.11
Востаннє: 28.11.16
Повідомлень: 3

2015-12-10 15:49  
Спасибі! Будемо дивитись під Новий рік!!!!
MykhayloМ 
Свій


З нами з: 05.01.13
Востаннє: 10.12.16
Повідомлень: 54

2016-08-03 04:31  
Згідно Вікіпедії , в другому фільмі ( в готелі ) одного з персонажів зображує Дональд Трамп. Той самий ... Happy
AndrewFG 
VIP


З нами з: 31.10.10
Востаннє: 10.12.16
Повідомлень: 268

2016-11-10 16:27  
MykhayloМ
Все вірно!

Ваш часовий пояс: GMT + 2 Години

Нова тема   Відповісти