Завантажити та скачати торренти українською


Межимир Миколаїв, Живосил Лютий - Щит Перуна (2005) [FLAC] | Folk Pagan

Нові коментарі

Нова тема   Відповісти
Останній раз роздавалося lloyd1 (2016-11-01)
Автор Повідомлення
ingwar 
Модератор літератури


З нами з: 08.03.08
Востаннє: 02.12.16
Повідомлень: 1200

2011-11-07 22:58  
Межимир Миколаїв, Живосил Лютий - Щит Перуна (2005) [FLAC] | Folk Pagan



Стиль: Folk Pagan
Країна, місто: Україна, Київ
Сайт: Офіційний сайт
Видавець: Духовне видання Родового Вогнища Рідної Православної Віри
Виконавці:
Межимир Миколаїв
Живосил (Василь) Лютий
Пісні:
    01.Меч Арея
    02.Нічка
    03.Артанія
    04.Святкові жупани
    05.Перуниця
    06.Характерник
    07.Мати Слава
    08.Денниця
    09.Козацька
    10.Купалочка
    11.Погоня за ясиром
    12.Жрець
    13.Кошмар
    14.Шістнадцять Волхвів
    15.Колодію

Тривалість: 00:54:46
Мова: українська
Аудіо-кодек: FLAC
Бітрейт: 746 кб/с
Джерело: Власний ріп
Додаткова інформація:
Вихід в світ цієї збірки був спричинений нагальною необхідністю покращення патріотично-виховної роботи з українською молоддю в осередках духовного ордену Родового Вогнища - Кошеві Характерного козацтва. Більшість пісень були написані в таборах Характерного козацтва, вони давно знані і відомі нашим побратимам з інших українських та слов'янських організацій.

Автори пісень - колишній та нинішній Кошовий отаман Характерного козацтва присвячують збірку "ЩИТ ПЕРУНА" усім Світлим Предкам, що віддали життя і сили на бойовищах ратних за Святу Землю-Матір нашу - Україну-Русь. Усіх імен їх не згадати. Ім'я їм - Перуничі. Вони - хранителі священної зброї Бога Перуна, вони охороняють Вітчизну нашу, тримаючи могутній Щит Перуна.

Це той щит, який у наших західних слов'янських кревників зветься Золотим Щитом Яровита. У наших східних братів - Вогненним Щитом Симаргла. Він є образом нашої Перемоги, адже Предки в усіх битвах несли його поперед війська разом із стягами Ясунів.

Ми переконані, збірка славнів "Щит Перуна" стане одним із тих забрал, які покликані захистити українців-русичів від руйнівної і прогнившої "демолібералізованої маскультури". Ми повертаємось до витоків нашої духовності. Пісня в давнину звалась славнем, оскільки в піснях, Предки славили Богів Прави. Відтак, нашою метою є відродити давні кощуноспіви, славні, прославляння Богів.

Тож послухай, нащадку, про великі подвиги Предків твоїх - богатирів України-Русі!


Якщо Ви справді бажаєте підтримати українське - після прослуховування, якщо музика вам сподобалась, придбайте ліцензійний диск. Підтримаймо вітчизняних виконавців!
log
Exact Audio Copy V1.0 beta 2 from 29. April 2011

EAC extraction logfile from 7. November 2011, 22:33

Межимир Миколаїв, Живосил Лютий / Щит Перуна

Used drive : HL-DT-STDVDRAM GSA-T20L Adapter: 1 ID: 0

Read mode : Secure
Utilize accurate stream : Yes
Defeat audio cache : Yes
Make use of C2 pointers : Yes

Read offset correction : 667
Overread into Lead-In and Lead-Out : No
Fill up missing offset samples with silence : Yes
Delete leading and trailing silent blocks : No
Null samples used in CRC calculations : No
Used interface : Native Win32 interface for Win NT & 2000

Used output format : User Defined Encoder
Selected bitrate : 768 kBit/s
Quality : High
Add ID3 tag : No
Command line compressor : C:\Program Files\Exact Audio Copy\FLAC\FLAC.EXE
Additional command line options : -6 -V -T "ARTIST=%artist%" -T "TITLE=%title%" -T "ALBUM=%albumtitle%" -T "DATE=%year%" -T "TRACKNUMBER=%tracknr%" -T "GENRE=%genre%" -T "COMMENT=%comment%" -T "BAND=%albuminterpret%" -T "COMPOSER=%composer%" %haslyrics%--ta

TOC of the extracted CD

Track | Start | Length | Start sector | End sector
---------------------------------------------------------
1 | 0:00.00 | 6:56.21 | 0 | 31220
2 | 6:56.21 | 4:30.63 | 31221 | 51533
3 | 11:27.09 | 3:54.74 | 51534 | 69157
4 | 15:22.08 | 2:17.40 | 69158 | 79472
5 | 17:39.48 | 4:05.74 | 79473 | 97921
6 | 21:45.47 | 3:27.07 | 97922 | 113453
7 | 25:12.54 | 3:42.18 | 113454 | 130121
8 | 28:54.72 | 3:40.27 | 130122 | 146648
9 | 32:35.24 | 3:21.00 | 146649 | 161723
10 | 35:56.24 | 3:20.58 | 161724 | 176781
11 | 39:17.07 | 3:11.00 | 176782 | 191106
12 | 42:28.07 | 3:25.07 | 191107 | 206488
13 | 45:53.14 | 2:53.00 | 206489 | 219463
14 | 48:46.14 | 3:12.00 | 219464 | 233863
15 | 51:58.14 | 2:47.74 | 233864 | 246462

Range status and errors

Selected range

Filename C:\Users\IC\Music\Межимир Миколаїв, Живосил Лютий - Щит Перуна.flac\Межимир Миколаїв, Живосил Лютий - Щит Перуна.wav

Suspicious position 0:00:23
Suspicious position 0:07:24

Peak level 100.0 %
Extraction speed 3.0 X
Range quality 99.8 %
Copy CRC CE457DC8
Copy finished

There were errors

AccurateRip summary

Track 1 not present in database
Track 2 not present in database
Track 3 not present in database
Track 4 not present in database
Track 5 not present in database
Track 6 not present in database
Track 7 not present in database
Track 8 not present in database
Track 9 not present in database
Track 10 not present in database
Track 11 not present in database
Track 12 not present in database
Track 13 not present in database
Track 14 not present in database
Track 15 not present in database

None of the tracks are present in the AccurateRip database

End of status report
Зауваження
Ріп зроблений з диска, купленого колись давно через Інтернет на сайті Рідновірів. Диск на той час продавався як звичайний CD-R із записом. При спробі ріпу EAC видав одну помилку (можливо, за 5 років CD почав портитися), але на звучання я не почув ніякої різниці


Срібний реліз (на рейтинг впливає 50% завантаженого)
 Трекер:    Зареєстрований   

Завантажити / скачати українську музику



відео для новачків



 Зареєстрований:   2011-11-07 22:58
 Розмір:   292 MB 
 Оцінка музики:   9.3/10 (Голосів: 9)
   
ingwar 
Модератор літератури


З нами з: 08.03.08
Востаннє: 02.12.16
Повідомлень: 1200

2011-11-07 23:01  
Особливо потужна перша пісня- Меч Арея
PaGaN 
Частий відвідувач


З нами з: 01.09.09
Востаннє: 22.11.16
Повідомлень: 28

2011-11-10 19:08  
гадаю версії MP3 було б достатньо...
ingwar 
Модератор літератури


З нами з: 08.03.08
Востаннє: 02.12.16
Повідомлень: 1200

2011-11-10 22:14  
Дякую. Сайт додав у опис.

А чого так гадаєте?

Добромир 
Новенький


З нами з: 17.05.12
Востаннє: 25.06.12
Повідомлень: 3

2012-06-25 15:30  
РВ РПВ не рідновіри а кучка кришнаїтів і РАкомолів! Vampire-like teeth
kioshko 
Частий відвідувач


З нами з: 26.09.09
Востаннє: 01.12.16
Повідомлень: 31

2014-10-22 22:07  
Роздайте хто небудь, будь ласка. Полюбляю Флак
veto75 
Новенький


З нами з: 26.06.13
Востаннє: 27.06.15
Повідомлень: 2

2015-06-27 16:42  
Дякую! Меч Арея гарна пісня.
А рік видання точно 2005? На іншому трекері вказано 2002-й.

ssTAss 
Модератор музики


З нами з: 05.07.08
Востаннє: 03.12.16
Повідомлень: 10930

2015-06-27 18:35  
veto75
в нас спілкуються українською
чому 2005? бо
1 - можливо, перевидання
хоча, скоріш за все
2 - на обкладинці пише 7513 рік (це, за їхньою вірою, від створення світу), а це 2005 (точніше, від 01.09.2004 по 31.08.2005)
отже, все правильно

veto75 
Новенький


З нами з: 26.06.13
Востаннє: 27.06.15
Повідомлень: 2

2015-06-27 18:37  
ssTAss
Я по спойлеру зрозумів і вже виправився)
7513 рік, оце так. Дякую за цікаву інформацію)

Ваш часовий пояс: GMT + 2 Години

Нова тема   Відповісти