Завантажити та скачати торренти українською


Без правил 3. Реванш / Беззаперечний 3. Спокута / Undisputed III: Redemption (2010) 720p 2xUkr/Eng | Sub Ukr/Eng

Нові коментарі

Нова тема   Відповісти
Автор Повідомлення
Віктор 
Відео Гуртом - субтитрування
Відео Гуртом - субтитрування


З нами з: 09.01.10
Востаннє: 03.12.16
Повідомлень: 8663

2011-11-07 20:45  
Без правил 3. Реванш / Беззаперечний 3. Спокута / Undisputed III: Redemption (2010) 720p 2xUkr/Eng | Sub Ukr/Eng



Жанр: пригодницький, кримінал, драма
Країна: США



Кіностудія / кінокомпанія: Nu Image Films, Undisputed 3 Productions
Режисер: Айзек Флорентайн (Isaac Florentine)
Композитор: Мінос Матсес (Minos Matsas)
Актори: Скот Едкінс (Scott Adkins), Мікель Шеннон Дженкінс (Mykel Shannon Jenkins), Марк Іванір (Mark Ivanir), Грісто Шопов (Hristo Shopov), Марко Зарор (Marko Zaror), Латіф Кровдер (Lateef Crowder) та інші.

Сюжет:
Юрій Бойко - російський чемпіон підпільних боїв без правил, поступово оговтується від отриманої в останньому поєдинку травми, вирішує повернутися на ринг. Перемігши в бою нинішнього чемпіона в'язниці «Чорні Пагорби», його бос - Гага - вирішує відправити його на міжнародний чемпіонат поєдинків між в'язницями. Пошкоджене коліно дає про себе знати в кожному бою і турбує Бойку, але він готовий пройти до кінця, щоб битися з колумбійським бійцем і довести, що він беззаперечний чемпіон.
MediaInfo

Код:

General
Unique ID                        : 186938055059173514860015689894775132687 (0x8CA2F5B55906C31D9A62B4E6A2D2920F)
Complete name                    : D:\HURTOM\Undisputed III. Redemption (2010) [2xUkr, Eng] 720p [Hurtom].mkv
Format                           : Matroska
File size                        : 5.60 GiB
Duration                         : 1h 36mn
Overall bit rate                 : 8 350 Kbps
Movie name                       : Undisputed III: Redemption (2010) [2xUkr, Eng] 720p [Hurtom]
Encoded date                     : UTC 2011-11-07 16:34:38
Writing application              : mkvmerge v5.0.0 ('Die Wahre Liebe') built on Sep 25 2011 20:33:49
Writing library                  : libebml v1.2.2 + libmatroska v1.3.0

Video
ID                               : 1
Format                           : AVC
Format/Info                      : Advanced Video Codec
Format profile                   : [email protected]
Format settings, CABAC           : Yes
Format settings, ReFrames        : 9 frames
Codec ID                         : V_MPEG4/ISO/AVC
Duration                         : 1h 36mn
Bit rate                         : 5 879 Kbps
Width                            : 1 280 pixels
Height                           : 720 pixels
Display aspect ratio             : 16:9
Frame rate                       : 23.976 fps
Color space                      : YUV
Chroma subsampling               : 4:2:0
Bit depth                        : 8 bits
Scan type                        : Progressive
Bits/(Pixel*Frame)               : 0.266
Stream size                      : 3.83 GiB (68%)
Title                            : Undisputed III: Redemption (2010) [2xUkr, Eng] 720p [Hurtom]
Writing library                  : core 104 r1683 62997d6
Encoding settings                : cabac=1 / ref=9 / deblock=1:-3:-3 / analyse=0x3:0x113 / me=tesa / subme=10 / psy=1 / psy_rd=0.90:0.00 / mixed_ref=1 / me_range=16 / chroma_me=1 / trellis=2 / 8x8dct=1 / cqm=0 / deadzone=21,11 / fast_pskip=0 / chroma_qp_offset=-2 / threads=6 / sliced_threads=0 / nr=0 / decimate=0 / interlaced=0 / constrained_intra=0 / bframes=8 / b_pyramid=2 / b_adapt=2 / b_bias=0 / direct=3 / weightb=1 / open_gop=0 / weightp=2 / keyint=250 / keyint_min=23 / scenecut=40 / intra_refresh=0 / rc=2pass / mbtree=0 / bitrate=5879 / ratetol=1.0 / qcomp=0.60 / qpmin=10 / qpmax=51 / qpstep=4 / cplxblur=20.0 / qblur=0.5 / ip_ratio=1.40 / pb_ratio=1.30 / aq=1:0.50
Language                         : English

Audio #1
ID                               : 2
Format                           : AC-3
Format/Info                      : Audio Coding 3
Mode extension                   : CM (complete main)
Codec ID                         : A_AC3
Duration                         : 1h 36mn
Bit rate mode                    : Constant
Bit rate                         : 384 Kbps
Channel(s)                       : 6 channels
Channel positions                : Front: L C R, Side: L R, LFE
Sampling rate                    : 48.0 KHz
Bit depth                        : 16 bits
Compression mode                 : Lossy
Stream size                      : 264 MiB (5%)
Title                            : 5.1 @ 384 kbps - двоголосий закадровий Олег Лепенець і Михайло Жонін
Language                         : Ukrainian

Audio #2
ID                               : 3
Format                           : AC-3
Format/Info                      : Audio Coding 3
Mode extension                   : CM (complete main)
Codec ID                         : A_AC3
Duration                         : 1h 36mn
Bit rate mode                    : Constant
Bit rate                         : 192 Kbps
Channel(s)                       : 2 channels
Channel positions                : Front: L R
Sampling rate                    : 48.0 KHz
Bit depth                        : 16 bits
Compression mode                 : Lossy
Stream size                      : 132 MiB (2%)
Title                            : 2.0 @ 192 kbps - двоголосий закадровий Олег Лепенець і Михайло Жонін
Language                         : Ukrainian

Audio #3
ID                               : 4
Format                           : AC-3
Format/Info                      : Audio Coding 3
Mode extension                   : CM (complete main)
Codec ID                         : A_AC3
Duration                         : 1h 36mn
Bit rate mode                    : Constant
Bit rate                         : 384 Kbps
Channel(s)                       : 6 channels
Channel positions                : Front: L C R, Side: L R, LFE
Sampling rate                    : 48.0 KHz
Bit depth                        : 16 bits
Compression mode                 : Lossy
Stream size                      : 264 MiB (5%)
Title                            : 5.1 @ 448 kbps - одноголосий закадровий (Олексій Петренко)
Language                         : Ukrainian

Audio #4
ID                               : 5
Format                           :
Format/Info                      : Digital Theater Systems
Codec ID                         : A_DTS
Duration                         : 1h 36mn
Bit rate mode                    : Constant
Bit rate                         : 1 510 Kbps
Channel(s)                       : 6 channels
Channel positions                : Front: L C R, Side: L R, LFE
Sampling rate                    : 48.0 KHz
Bit depth                        : 24 bits
Compression mode                 : Lossy
Stream size                      : 1.01 GiB (18%)
Title                            : 5.1 @ 1536 kbps
Language                         : English

Text #1
ID                               : 6
Format                           : UTF-8
Codec ID                         : S_TEXT/UTF8
Codec ID/Info                    : UTF-8 Plain Text
Title                            : Переклад: w2958l
Language                         : Ukrainian

Text #2
ID                               : 7
Format                           : UTF-8
Codec ID                         : S_TEXT/UTF8
Codec ID/Info                    : UTF-8 Plain Text
Language                         : English

Menu
00:00:00.000                     : en:00:00:00.000
00:11:31.232                     : en:00:11:31.232
00:19:26.457                     : en:00:19:26.457
00:28:14.276                     : en:00:28:14.276
00:40:06.696                     : en:00:40:06.696
00:49:29.341                     : en:00:49:29.341
01:01:16.464                     : en:01:01:16.464
01:12:28.844                     : en:01:12:28.844
01:25:33.337                     : en:01:25:33.337
01:32:27.083                     : en:01:32:27.083
Усі наявні релізи

Завантажити:
720p 2xUkr/Eng | Sub Ukr/Eng (5.6 GB) - двоголосий закадровий запис звуку з 1+1 і одноголосий любительський (Олексій Петренко)
2хUkr/Eng | Sub Ukr/Eng (1.96 GB) - двоголосий закадровий запис звуку з 1+1 і одноголосий любительський (Олексій Петренко)

Про озвучення записане з 1+1
Ролі озвучили: Скот Едкінс - Олег Лепенець, Мікель Шеннон Дженкінс - Михайло Жонін

Також на толоці:
Обговоренню не підлягає / Undisputed (2002)
2xUkr/Eng (2.19 GB) - багатоголосий закадровий Так Треба Продакшн на замовлення ТРК Україна і двоголосий закадровий Студія «Старий Майстер» запис звуку з КІНО

Про озвучення від Так Треба Продакшн
Ролі озвучили: Пітер Фальк - Ярослав Чорненький

Про озвучення від Студії «Старий Майстер»
Ролі озвучили: Дмитро Завадський

Обговоренню не підлягає - 2 / Без правил - 2 / Undisputed II: Last Man Standing (2006)
Ukr/Eng (1.96 GB) - багатоголосий закадровий запис звуку з 1+1

Ролі озвучили: Скот Едкінс - Андрій Твердак, Майкл Дж.Вайт - Михайло Жонін
Тривалість: 01:36:01
Якість: 720p (EbP)
Відео:
кодек:
розмір кадру: 1280х720
бітрейт: 5879 кб/с

Аудіо # 1:
мова: українська
переклад: двоголосий закадровий Олег Лепенець і Михайло Жонін
кодек: 5.1
бітрейт: 384 кб/с

Аудіо # 2:
мова: українська
переклад: двоголосий закадровий Олег Лепенець і Михайло Жонін
кодек: 2.0
бітрейт: 192 кб/с

Аудіо # 3:
мова: українська
переклад: одноголосий закадровий (Олексій Петренко)
кодек: 5.1
бітрейт: 448 кб/с

Аудіо # 4:
мова: англійська
переклад: оригінал
кодек: 5.1
бітрейт: 1536 кб/с

Субтитри 1:
мова: українська
тип: програмні (м'які)
формат: *.srt
переклад і редагування: w2958l

Субтитри 2:
мова: англійська
тип: програмні (м'які)
формат: *.srt

Скріншоти:





За синхронізацію доріжок 5.1 і 2.0 подяка MutuLI,
за запис доріжки з ТБ подяка xslim-у,
за озвучення, монтування 3-ої доріжки і українізацію постера МЕГА подяка Mister rock-y (Олексій Петренко),
за накладання овервойсу 3-ої доріжки на оригінал АС3 5.1 подяка Givi


Джерело:

Особиста оцінка: 10 - без зайвих вагань рекомендую всім!


Бронзовий реліз (на рейтинг впливає 75% завантаженого)
 Трекер:    Зареєстрований   

Завантажити / скачати фільм українською



відео для новачків



 Зареєстрований:   2011-11-07 20:45
 Розмір:   5.6 GB 
 Оцінка фільму:   9.3/10 (Голосів: 12)
   
Ваш часовий пояс: GMT + 2 Години

Нова тема   Відповісти