Завантажити та скачати торренти українською


Тарас Лазуркевич, Олег Созанський - Бандурна розмова (1999) [FLAC] | Ethno Folk

Нові коментарі

Нова тема   Відповісти
Останній раз роздавалося TarasBulba (2016-11-25)
Автор Повідомлення
ingwar 
Модератор літератури


З нами з: 08.03.08
Востаннє: 09.12.16
Повідомлень: 1200

2011-11-04 13:01  
Тарас Лазуркевич, Олег Созанський - Бандурна розмова (1999) [FLAC] | Ethno Folk



Стиль: Ethno Folk
Країна, місто: Україна, Львів
Видавець: Студія "МЕЛОС", м.Львів
Виконавці:
Тарас Лазуркевич
Олег Созанський
Пісні:
    01. Ой, під горою
    02. Бандуристе, орле сизий
    03. Та забіліли сніги
    04. Лети, думо моя
    05. Бандурна розмова
    06. Гей, Іване!
    07. Ой, учора орав
    08. Ой, у полі вітер віє
    09. Встає хмара з-за лиману
    10. Через поле широкеє
    11. Уривки з поеми "Байда"
    12. Ой, у полі вишня
    13. Ой, хата моя рубленая
    14. Гей, скинемось та по таляру

Тривалість: 00:39:45
Мова: українська
Аудіо-кодек: FLAC
Бітрейт: 722 кб/с
Джерело: Власний ріп
Додаткова інформація:
Кожен з цих двох молодих бандуристів є самодостатнім, обидва успішно концертують, обидва неодноразово перемагали у конкурсах, фестивалях не тільки в Україні, а й за її межами. Але зараз перед Вами перший їхній спільний альбом, і це – сила. Без перебільшень. Є і в грі їхній, і в голосах якась така міць, така правда, таке щось, що заворожує з перших же секунд. Це диво таке ж просте, як і паросток, який здатен проломити камінь на шляху до світла. Ви побачите – це два проміні. Які зустрічаються. І в цій точці зустрічі виникає кут. В даному випадку – кут зору. Це той випадок, коли сума є чимось більшим, ніж просто доданок плюс доданок. Здавалося б, усе тут давно знайоме. І бандуру не назвеш новітнім інструментом, і пісням, що тут звучать, вже давно за сотню років вік перевалив. Але присутній тут вогонь, який не буду описувати словами. Втім, так і має бути, коли талановиті люди об’єднуються задля спільної справи. У всякім разі, в цих двох, здається, вийшло.
log
Exact Audio Copy V1.0 beta 2 from 29. April 2011

EAC extraction logfile from 4. November 2011, 13:29

Т.Лазуркевич, О.Созанський / Бандурна розмова

Used drive : HL-DT-STDVDRAM GSA-T20L Adapter: 1 ID: 0

Read mode : Secure
Utilize accurate stream : Yes
Defeat audio cache : Yes
Make use of C2 pointers : Yes

Combined read/write offset correction : 0
Overread into Lead-In and Lead-Out : No
Fill up missing offset samples with silence : Yes
Delete leading and trailing silent blocks : No
Null samples used in CRC calculations : No
Used interface : Native Win32 interface for Win NT & 2000

Used output format : User Defined Encoder
Selected bitrate : 768 kBit/s
Quality : High
Add ID3 tag : No
Command line compressor : C:\Program Files\Exact Audio Copy\FLAC\FLAC.EXE
Additional command line options : -6 -V -T "ARTIST=%artist%" -T "TITLE=%title%" -T "ALBUM=%albumtitle%" -T "DATE=%year%" -T "TRACKNUMBER=%tracknr%" -T "GENRE=%genre%" -T "COMMENT=%comment%" -T "BAND=%albuminterpret%" -T "COMPOSER=%composer%" %haslyrics%--ta

TOC of the extracted CD

Track | Start | Length | Start sector | End sector
---------------------------------------------------------
1 | 0:00.00 | 3:01.13 | 0 | 13587
2 | 3:01.13 | 2:38.70 | 13588 | 25507
3 | 5:40.08 | 2:45.73 | 25508 | 37955
4 | 8:26.06 | 3:34.70 | 37956 | 54075
5 | 12:01.01 | 4:04.72 | 54076 | 72447
6 | 16:05.73 | 2:09.73 | 72448 | 82195
7 | 18:15.71 | 2:01.01 | 82196 | 91271
8 | 20:16.72 | 3:41.21 | 91272 | 107867
9 | 23:58.18 | 2:59.71 | 107868 | 121363
10 | 26:58.14 | 2:20.44 | 121364 | 131907
11 | 29:18.58 | 3:47.11 | 131908 | 148943
12 | 33:05.69 | 1:42.74 | 148944 | 156667
13 | 34:48.68 | 1:41.09 | 156668 | 164251
14 | 36:30.02 | 3:15.65 | 164252 | 178941

Range status and errors

Selected range

Filename C:\Users\IC\Music\Т.Лазуркевич, О.Созанський - Бандурна розмова.wav

Peak level 96.9 %
Extraction speed 5.0 X
Range quality 100.0 %
Copy CRC 8F2DC49D
Copy OK

No errors occurred

End of status report
Картинки


Якщо Ви справді бажаєте підтримати українське - після прослуховування, якщо музика вам сподобалась, придбайте ліцензійний диск. Підтримаймо вітчизняних виконавців!


Срібний реліз (на рейтинг впливає 50% завантаженого)
 Трекер:    Зареєстрований   

Завантажити / скачати українську музику



відео для новачків



 Зареєстрований:   2011-11-04 13:01
 Розмір:   206 MB 
 Оцінка музики:   10/10 (Голосів: 9)
   
musicfan 
Модератор музики


З нами з: 27.01.09
Востаннє: 09.12.16
Повідомлень: 893

2011-11-04 13:06  
ingwar написано:
Джерело: Власний ріп

Додайте будь ласка у оформлення вмісту файлу log під спойлер

ingwar 
Модератор літератури


З нами з: 08.03.08
Востаннє: 09.12.16
Повідомлень: 1200

2011-11-04 13:30  
Немає лог-файлу, коли робив ріп не зберіг його

Додано через 14 хвилин 5 секунд:

Ще раз ріпнув, додав Happy

ingwar 
Модератор літератури


З нами з: 08.03.08
Востаннє: 09.12.16
Повідомлень: 1200

2011-11-05 08:15  
Додав скановані картинки від диска.
fv007 
VIP


З нами з: 01.01.10
Востаннє: 10.12.16
Повідомлень: 449

2013-08-25 17:48  
ingwar написано:
Додав скановані картинки від диска.


поновіть будь ласка

Ваш часовий пояс: GMT + 2 Години

Нова тема   Відповісти