Завантажити та скачати торренти українською


Літаком, потягом, автомобілем / Planes, Trains & Automobiles (1987) 720p Ukr/Eng | Sub Eng/Fre

Нові коментарі

Нова тема   Відповісти
Автор Повідомлення
DеLight 
Відео Гуртом - фільмокрай
Відео Гуртом - фільмокрай


З нами з: 24.08.11
Востаннє: 17.11.16
Повідомлень: 664

2011-11-03 17:33  
Літаком, потягом, автомобілем / Planes, Trains & Automobiles (1987) 720p Ukr/Eng | Sub Eng/Fre


«What he really wanted was to spend Thanksgiving with his family.
What he got was three days with the turkey.»



Додаткові постери






Жанр: комедія, драма
Країна: США



Кіностудія / кінокомпанія: Hughes Entertainment, Paramount Pictures
Режисер: Джон Хьюз / John Hughes
Актори: Стів Мартін / Steve Martin, Джон Кенді / John Candy, Лайла Робінс / Laila Robins, Майкл МакКін / Michael McKean, Кевін Бейкон / Kevin Bacon, Ділан Бейкер / Dylan Baker, Керол Брюс / Carol Bruce, Олівія Бернетт / Olivia Burnette, Діана Дуглас / Diana Douglas, Мартін Ферреро / Martin Ferrero, Ларрі Ханкін / Larry Hankin, Річард Херд / Richard Herd, Сьюзан Келлерман / Susan Kellermann, Меттью Лоуренс / Matthew Lawrence, Еді МакКлург / Edie McClurg


Все, що було потрібно процвітаючому рекламодавцю Нілу Пейджу, так це встигнути додому до Дня Подяки. Адже це так просто: купити квиток на літак, зробити комфортабельний політ до рідного Чикаго і вже ввечері сісти за святковий стіл з усією своєю родиною.

Але сталося так, що це виявилося жахливо важким завданням. Шлях додому стане для Ніла самою неймовірною пригодою всього його життя!



Тривалість: 01:32:31
Якість: 720p

Відео:
кодек:
розмір кадру: 1280 x 720
бітрейт: 5 615 кб/с

Аудіо# 1:
мова: українська
переклад: багатоголосий закадровий
кодек: 5.1
бітрейт: 448 кб/с

Джерело озвучення:


Аудіо# 2:
мова: англійська
переклад: оригінал
кодек: 5.1
бітрейт: 448 кб/с

Субтитри # 1: (до моментів без перекладу)
мова: українська
тип: програмні
формат: *.srt

Субтитри # 2:
мова: англійська
тип: пререндерні
формат: *.sub + *.idx

Субтитри # 3:
мова: французька
тип: програмні
формат: *.srt



->переглянути<-

General
Unique ID : 249675190312093588624399038286930562880 (0xBBD5B14A40D355EA99E835F04886CF40)
Complete name : D:\Torrents\Planes, Trains & Automobiles (1987) 720p [Ukr, Eng] [Hurtom & Freeisland].mkv
Format : Matroska
File size : 4.21 GiB
Duration : 1h 32mn
Overall bit rate : 6 514 Kbps
Movie name : Planes, Trains & Automobiles (1987) 720p [Ukr, Eng] [Hurtom & FREEISLAND] by Dony
Encoded date : UTC 2011-11-03 12:00:17
Writing application : mkvmerge v4.8.0 ('I Got The...') зібрано May 24 2011 03:12:58
Writing library : libebml v1.2.0 + libmatroska v1.1.0

Video
ID : 1
Format : AVC
Format/Info : Advanced Video Codec
Format profile : [email protected]
Format settings, CABAC : Yes
Format settings, ReFrames : 9 frames
Format settings, GOP : M=1, N=30
Codec ID : V_MPEG4/ISO/AVC
Duration : 1h 32mn
Bit rate : 5 615 Kbps
Width : 1 280 pixels
Height : 720 pixels
Display aspect ratio : 16:9
Frame rate : 23.976 fps
Color space : YUV
Chroma subsampling : 4:2:0
Bit depth : 8 bits
Scan type : Progressive
Bits/(Pixel*Frame) : 0.254
Stream size : 3.55 GiB (84%)
Title : Planes, Trains & Automobiles (1987) 720p
Writing library : core 119 r2106 07efeb4
Encoding settings : cabac=1 / ref=9 / deblock=1:-3:-3 / analyse=0x3:0x133 / me=umh / subme=9 / psy=1 / psy_rd=1.00:0.25 / mixed_ref=1 / me_range=32 / chroma_me=1 / trellis=2 / 8x8dct=1 / cqm=0 / deadzone=21,11 / fast_pskip=0 / chroma_qp_offset=-4 / threads=6 / sliced_threads=0 / nr=0 / decimate=0 / interlaced=0 / bluray_compat=0 / constrained_intra=0 / bframes=6 / b_pyramid=2 / b_adapt=2 / b_bias=0 / direct=1 / weightb=1 / open_gop=0 / weightp=2 / keyint=250 / keyint_min=23 / scenecut=40 / intra_refresh=0 / rc_lookahead=60 / rc=2pass / mbtree=1 / bitrate=5615 / ratetol=1.0 / qcomp=0.65 / qpmin=10 / qpmax=51 / qpstep=4 / cplxblur=20.0 / qblur=0.5 / ip_ratio=1.40 / aq=2:1.00
Language : English

Audio #1
ID : 2
Format : AC-3
Format/Info : Audio Coding 3
Mode extension : CM (complete main)
Codec ID : A_AC3
Duration : 1h 32mn
Bit rate mode : Constant
Bit rate : 448 Kbps
Channel(s) : 6 channels
Channel positions : Front: L C R, Side: L R, LFE
Sampling rate : 48.0 KHz
Bit depth : 16 bits
Compression mode : Lossy
Stream size : 296 MiB (7%)
Title : 5.1; 448 kbps; багатоголосий закадровий {Новий канал}
Language : Ukrainian

Audio #2
ID : 3
Format : AC-3
Format/Info : Audio Coding 3
Mode extension : CM (complete main)
Codec ID : A_AC3
Duration : 1h 32mn
Bit rate mode : Constant
Bit rate : 448 Kbps
Channel(s) : 6 channels
Channel positions : Front: L C R, Side: L R, LFE
Sampling rate : 48.0 KHz
Bit depth : 16 bits
Compression mode : Lossy
Stream size : 296 MiB (7%)
Title : 5.1; 448 kbps; original
Language : English

Text #1
ID : 4
Format : UTF-8
Codec ID : S_TEXT/UTF8
Codec ID/Info : UTF-8 Plain Text
Title : forced
Language : Ukrainian

Text #2
ID : 5
Format : VobSub
Codec ID : S_VOBSUB
Codec ID/Info : The same subtitle format used on DVDs
Language : English

Text #3
ID : 6
Format : UTF-8
Codec ID : S_TEXT/UTF8
Codec ID/Info : UTF-8 Plain Text
Language : French

Menu
00:00:00.000 : en:Chapter 01
00:02:41.202 : en:Chapter 02
00:07:09.262 : en:Chapter 03
00:12:11.981 : en:Chapter 04
00:15:01.859 : en:Chapter 05
00:17:29.965 : en:Chapter 06
00:20:10.083 : en:Chapter 07
00:27:51.711 : en:Chapter 08
00:32:16.935 : en:Chapter 09
00:35:51.065 : en:Chapter 10
00:39:21.359 : en:Chapter 11
00:41:47.463 : en:Chapter 12
00:43:11.839 : en:Chapter 13
00:45:33.856 : en:Chapter 14
00:49:45.816 : en:Chapter 15
00:51:17.532 : en:Chapter 16
00:55:32.912 : en:Chapter 17
00:57:05.296 : en:Chapter 18
00:59:17.470 : en:Chapter 19
01:01:50.957 : en:Chapter 20
01:06:49.046 : en:Chapter 21
01:09:36.630 : en:Chapter 22
01:15:13.383 : en:Chapter 23
01:18:46.555 : en:Chapter 24
01:20:30.700 : en:Chapter 25
01:24:49.793 : en:Chapter 26
01:27:04.552 : en:Chapter 27




->переглянути<-











Джерело: &
Подяка ua2004 за українську доріжку та eastern_sun за українізований постер
Особиста оцінка: 9


Срібний реліз (на рейтинг впливає 50% завантаженого)
 Трекер:    Зареєстрований   

Завантажити / скачати фільм українською



відео для новачків



 Зареєстрований:   2011-11-03 17:33
 Розмір:   4.21 GB 
 Оцінка фільму:   9.4/10 (Голосів: 19)
   
DerPartisan 
Свій


З нами з: 19.03.10
Востаннє: 11.11.16
Повідомлень: 62

2013-04-23 07:42  
Дуже люблю цей фільм і гру цих акторів. Сценарист і режисер постаралися. у 1987 не затикали спецефектами гру акторів. Зараз при невдалій грі можна напхати графіки і злити фільм в кінотеатри, піпл схаває. Дякую за роздачу.
Ваш часовий пояс: GMT + 2 Години

Нова тема   Відповісти