Завантажити та скачати торренти українською


Зіра / [Зира] - Нежданно-негадано (2010) [FLAC] | Instrumental / Folk

Нові коментарі

Нова тема   Відповісти
Автор Повідомлення
ingwar 
Модератор літератури


З нами з: 08.03.08
Востаннє: 10.12.16
Повідомлень: 1200

2011-11-02 22:14  
Зіра / [Зира] - Нежданно-негадано (2010) [FLAC] | Instrumental / Folk



Стиль: Instrumental Folk
Країна, місто: Україна, Одеса
Видавець: Ансамбль "Зіра"
Виконавці:
Дмитро Земський (уд, класична гітара, сітар, флейти (ксяо, кена, native American flute), спів)
Олег Резніченко (перкурсія (дарбука, джамбей, конг, черепаха), спів)

1,2,3,4,6,8,9,10,11 - композитор Дмитро Земський
5 - Дмитро Земський, Олег Резніченко
7 - старовинна іспанська пісня
Пісні:
    01. Псалом
    02. За три моря
    03. Арабський рок
    04. Макондо
    05. Черепаха
    06. Сірін та Алконост
    07. Guardame las vacas
    08. Середньовічна пісня
    09. Поза війною
    10. Антидот
    11. Last train

Тривалість: 00:55:49
Мова: немає: інструментальні композиції
Аудіо-кодек: FLAC
Бітрейт: 683 кб/с
Джерело: Власний ріп
Додаткова інформація:
Група Зіра була заснована восени 2009 року, Дмитром Земським і Олегом Резниченко. Сама назва - це абревіатура (Земський І Резниченко Ансамбль). Назва також співзвучна зі східною пряністю «зира», що повністю відповідає творчості колективу. Хлопці грають на різних музичних інструментах: уд, ситар, етнічні флейти, перкусія, класична гітара.
Музика ЗІРи це завжди вихід за рамки щоденності, переосмислення й експеримент, казкова подорож і виклик стереотипам цього миру.
Не можна точно позначити границю жанру, у якому працюють музиканти. Це комбінація східних мелодій, балканських ритмів, слов'янської наспівності, року й середньовічної музики, мінімалізму й посткласики.
Самі музиканти говорять про себе так: «Ми відіграємо авторську музику, використовуючи різні екзотичні інструменти, незвичайне звучання яких допомагає нам подорожувати по ландшафтах людської душі. Наші концерти-подорожі ця протиотрута глобальному супермаркету. Наша зброя – щирість і простота. Дует ЗІРА- це осмислення впливу музики різних культур на слов'янську душу, зустріч сходу й заходу, минулого й сьогодення.
Люди завжди міркували про прості речі: любов і смерть, добро й зло. Нагадати про ці істини наше завдання…»
log
Exact Audio Copy V1.0 beta 2 from 29. April 2011

EAC extraction logfile from 9. September 2011, 14:33

Зіра / Нежданно-негадано

Used drive : HL-DT-STDVDRAM GSA-T20L Adapter: 1 ID: 0

Read mode : Secure
Utilize accurate stream : Yes
Defeat audio cache : Yes
Make use of C2 pointers : Yes

Combined read/write offset correction : 0
Overread into Lead-In and Lead-Out : No
Fill up missing offset samples with silence : Yes
Delete leading and trailing silent blocks : No
Null samples used in CRC calculations : No
Used interface : Native Win32 interface for Win NT & 2000

Used output format : User Defined Encoder
Selected bitrate : 768 kBit/s
Quality : High
Add ID3 tag : No
Command line compressor : C:\Program Files\Exact Audio Copy\FLAC\FLAC.EXE
Additional command line options : -6 -V -T "ARTIST=%artist%" -T "TITLE=%title%" -T "ALBUM=%albumtitle%" -T "DATE=%year%" -T "TRACKNUMBER=%tracknr%" -T "GENRE=%genre%" -T "COMMENT=%comment%" -T "BAND=%albuminterpret%" -T "COMPOSER=%composer%" %haslyrics%--ta

TOC of the extracted CD

Track | Start | Length | Start sector | End sector
---------------------------------------------------------
1 | 0:00.00 | 4:58.69 | 0 | 22418
2 | 4:58.69 | 5:15.37 | 22419 | 46080
3 | 10:14.31 | 3:09.08 | 46081 | 60263
4 | 13:23.39 | 3:15.61 | 60264 | 74949
5 | 16:39.25 | 4:22.06 | 74950 | 94605
6 | 21:01.31 | 7:52.53 | 94606 | 130058
7 | 28:54.09 | 1:58.13 | 130059 | 138921
8 | 30:52.22 | 6:56.09 | 138922 | 170130
9 | 37:48.31 | 7:48.37 | 170131 | 205267
10 | 45:36.68 | 7:24.24 | 205268 | 238591
11 | 53:01.17 | 2:46.01 | 238592 | 251042

Range status and errors

Selected range

Filename C:\Users\IC\Music\Зіра - Нежданно-негадано\Зіра - Нежданно-негадано.wav

Peak level 97.6 %
Extraction speed 5.7 X
Range quality 100.0 %
Copy CRC C17491C8
Copy OK

No errors occurred

End of status report
Картинки


Якщо Ви справді бажаєте підтримати українське - після прослуховування, якщо музика вам сподобалась, придбайте ліцензійний диск. Підтримаймо вітчизняних виконавців!


Срібний реліз (на рейтинг впливає 50% завантаженого)
 Трекер:    Зареєстрований   

Завантажити / скачати українську музику



відео для новачків



 Зареєстрований:   2011-11-02 22:14
 Розмір:   273 MB 
 Оцінка музики:   8.1/10 (Голосів: 15)
   
AlanAlan 
Почесний гуртомівець


З нами з: 29.06.08
Востаннє: 06.02.16
Повідомлень: 1377

2011-11-04 18:46  
Цитата:
Тут українською на білому написано УКРАЇНСЬКА музика. А ви що нам пхаєте? На росіянські торенти це лайно.
Заспівають українською - ласкаво просимо.

Тему закрив.
Для деяких винятковоукраїномоволюбних гуртомівців цитую опис релізу:
ingwar написано:
Мова: немає: інструментальні композиції

Ваш часовий пояс: GMT + 2 Години

Нова тема   Відповісти