Завантажити та скачати торренти українською


Фатальна красуня / Hors de prix (2006) 720p Ukr | sub Eng

Нові коментарі

Нова тема   Відповісти
Автор Повідомлення
DеLight 
Відео Гуртом - фільмокрай
Відео Гуртом - фільмокрай


З нами з: 24.08.11
Востаннє: 17.11.16
Повідомлень: 664

2011-10-30 22:58  
Фатальна красуня / Hors de prix (2006) 720p Ukr | sub Eng





Альтернативні постери






Жанр: комедія, мелодрама
Країна: Франція



Кіностудія / кінокомпанія: Canal+ [fr], France 2 Cinéma, France 3 Cinéma, Les Films Pelléas, Tovo Films, TPS Star, Wild Bunch
Режисер: П'єр Сальвадорі / Pierre Salvadori
Актори: Одрі Тоту / Audrey Tautou, Гад Ельмале / Gad Elmaleh, Марі-Крістін Адам / Marie-Christine Adam, Вернон Добчефф / Vernon Dobtcheff, Жак Спіссер / Jacques Spiesser, Аннеліз Хесме / Annelise Hesme, Шарлотта Вермейл / Charlotte Vermeil, Клодін Башет / Claudine Baschet, Лоран Кларі / Laurent Claret, Жан де Коннік / Jean de Coninck, Бландін Пелісьє / Blandine Pélissier, Філіп Вендан-Борін / Philippe Vendan-Borin, Бернард Бурдо / Bernard Bourdeau, Дідьє Бріс / Didier Brice, Лоран Мутон / Laurent Mouton


Авантюристка Ірен приймає скромного службовця готелю Жана за мільярдера. Виявивши свою помилку, вона тут же покидає його, проте закоханий Жан кидається слідом.

Його заощадження швидко закінчуються, і від відчаю Жан приймає пропозицію стати супроводжуючим немолодої, але надзвичайно забезпеченої пані. Новий статус зближує його з Ірен, яка, врешті-решт, упокорюється з присутністю Жана. Вона допомагає Жану порадою, і, сама того не усвідомлюючи, починає все більше і більше прив'язуватися до нього.



Тривалість: 01:45:54
Якість: 720p (ріп з Blu-ray Remux 1080p)

Відео:
кодек:
розмір кадру: 1280 x 536
бітрейт: 5 273 кб/с

Аудіо:
мова: українська
переклад: двоголосий закадровий
кодек: 5.1
бітрейт: 448 кб/с

Джерело озвучення:


Субтитри:
мова: англійська
тип: програмні (м'які)
формат: *.srt



->переглянути<-

General
Unique ID : 180900048299027352722747636069742432911 (0x881814FDB0EDBCDB89A440527D4C528F)
Complete name : D:\Torrents\Hors de Prix (2006) 720p [Ukr] [Hurtom & RuTracker].mkv
Format : Matroska
File size : 4.23 GiB
Duration : 1h 45mn
Overall bit rate : 5 723 Kbps
Movie name : Hors de prix (2006) 720p [Ukr] [Hurtom] by Dony
Encoded date : UTC 2011-10-30 19:04:08
Writing application : mkvmerge v4.8.0 ('I Got The...') зібрано May 24 2011 03:12:58
Writing library : libebml v1.2.0 + libmatroska v1.1.0

Video
ID : 1
Format : AVC
Format/Info : Advanced Video Codec
Format profile : [email protected]
Format settings, CABAC : Yes
Format settings, ReFrames : 8 frames
Format settings, GOP : N=1
Codec ID : V_MPEG4/ISO/AVC
Duration : 1h 45mn
Bit rate : 5 273 Kbps
Width : 1 280 pixels
Height : 536 pixels
Display aspect ratio : 2.35:1
Frame rate : 23.976 fps
Color space : YUV
Chroma subsampling : 4:2:0
Bit depth : 8 bits
Scan type : Progressive
Bits/(Pixel*Frame) : 0.321
Stream size : 3.82 GiB (90%)
Title : Hors de prix (2006) 720p
Writing library : core 67 r1153M 7b6ce6a
Encoding settings : cabac=1 / ref=8 / deblock=1:-3:-3 / analyse=0x3:0x133 / me=umh / subme=7 / psy_rd=1.0:0.0 / mixed_ref=1 / me_range=24 / chroma_me=1 / trellis=2 / 8x8dct=1 / cqm=0 / deadzone=21,11 / chroma_qp_offset=-2 / threads=2 / nr=0 / decimate=0 / mbaff=0 / bframes=3 / b_pyramid=1 / b_adapt=2 / b_bias=0 / direct=3 / wpredb=1 / keyint=250 / keyint_min=25 / scenecut=40 / rc=2pass / bitrate=5273 / ratetol=1.0 / qcomp=0.60 / qpmin=10 / qpmax=51 / qpstep=4 / cplxblur=20.0 / qblur=0.5 / ip_ratio=1.40 / pb_ratio=1.30 / aq=1:1.00
Language : English

Audio
ID : 2
Format : AC-3
Format/Info : Audio Coding 3
Mode extension : CM (complete main)
Codec ID : A_AC3
Duration : 1h 45mn
Bit rate mode : Constant
Bit rate : 448 Kbps
Channel(s) : 6 channels
Channel positions : Front: L C R, Side: L R, LFE
Sampling rate : 48.0 KHz
Bit depth : 16 bits
Compression mode : Lossy
Stream size : 339 MiB (8%)
Title : 5.1; 448 kbps; двоголосий закадровий {1+1}
Language : Ukrainian

Text
ID : 3
Format : UTF-8
Codec ID : S_TEXT/UTF8
Codec ID/Info : UTF-8 Plain Text
Language : English




->переглянути<-
















Джерело: &
Подяка rooster за українську доріжку
Особиста оцінка: 9 - красива історія


 Трекер:    Зареєстрований   

Завантажити / скачати фільм українською



відео для новачків



 Зареєстрований:   2011-10-30 22:58
 Розмір:   4.23 GB 
 Оцінка фільму:   9.9/10 (Голосів: 23)
   
Інші релізи
   Фатальна красуня / Hors de prix (2006) sokeel  3 / 0   746 MB   2016-09-19 10:08 
   Фатальна красуня / Hors de prix (2006) 2xUkr/Fra Arsenfpu  11 / 0   1.89 GB   2015-11-24 19:24 
   Фатальна красуня / Hors de prix (2006) Ukr/Fra rooster  3 / 0   2.13 GB   2011-10-29 09:06 
MVS-Vasya 
Новенький


З нами з: 06.10.11
Востаннє: 05.12.16
Повідомлень: 1

2011-10-31 01:16  
фільм дуже класний раджу всі))))
skuline 
Свій


З нами з: 17.12.11
Востаннє: 07.12.16
Повідомлень: 114

2013-05-06 11:13  
Легка комедія, варта перегляду ))))
Ваш часовий пояс: GMT + 2 Години

Нова тема   Відповісти