Завантажити та скачати торренти українською


Хеллбой. Дилогія / Геллбой. Дилогія / Hellboy. Dilogy (2004-2008) 720p Ukr/Eng | Sub Eng

Нові коментарі

Нова тема   Відповісти
Автор Повідомлення
Віктор 
Відео Гуртом - субтитрування
Відео Гуртом - субтитрування


З нами з: 09.01.10
Востаннє: 06.12.16
Повідомлень: 8663

2011-10-28 15:34  
Хеллбой. Дилогія / Геллбой. Дилогія / Hellboy. Dilogy (2004-2008) 720p Ukr/Eng | Sub Eng

Хеллбой / Геллбой / Hellboy (2004) (Режисерська версія / Director's Cut) 720p Ukr/Eng | Sub Eng

Хеллбой / Геллбой / Hellboy (2004) [Режисерська версія / Director's Cut] 720p Ukr/Eng | Sub Eng




«Here to protect»


Жанр: фентезі, бойовик, пригодницький
Країна: США



Кіностудія / кінокомпанія: Revolution Studios, Lawrence Gordon Productions, Starlite Films
Режисер: Ґільєрмо Дель Торо (Guillermo del Toro)
Композитор: Марко Белтрамі (Marco Beltrami)
Актори: Рон Перлман (Ron Perlman), Джон Герт (John Hurt), Сельма Блер (Selma Blair), Даґ Джонс (Doug Jones), Ладіслав Беран (Ladislav Beran) та інші.

Сюжет:
Демон, який потрапив у наш світ під час експерименту нацистів, був врятований американським вченим і з дитинства виховувався серед людей, щоб в майбутньому стати їхнім захисником у боротьбі з темними силами.
Цікаві факти



Цікаві факти про фільм

• Цікаво, що озвучувати юного Геллбоя, Саммаеля і Кройнена взяв на себе сам режисер фільму Ґільєрмо Дель Торо.
• Під час сцени спогадів Ліз, одна з будівель в кадрі зветься «Міґнола Плаза», це данина поваги творцеві коміксу Майку Міґнола.
• Режисер Ґільєрмо Дель Торо виношував ідею створення цього кінопроекту упродовж багатьох років, і увесь цей час вважав ідеальним кандидатом на головну роль свого давнього приятеля Рона Перлмана. Тим не менш, студії досить неохоче йшли на контакт із заповзятим режисером і відмовляли йому або з фінансуванням, або просто вважали проект потенційно провальним. І тільки після виходу на екрани комерційного хіта «Блейд 2» Ґільєрмо запропонували підготувати до виходу в прокат на вибір один із проектів - «Геллбой» і «Блейд 3: трійця». Спочатку Ґільєрмо хотів знімати ці фільми одночасно, однак, переконавшись у тому, що він не надлюдина, вирішив зупинитися на фільмі «Геллбой».
• Після зустрічі з продюсерами, Ґільєрмо Дель Торо було запропоновано внести ряд змін в концепцію сюжету. Одна з ідей полягала в тому, що Геллбой насправді звичайна людина, а в супергероя перетворюється лише в моменти люті. Інша пропозиція було приблизно такою ж - Геллбой дійсно пройшов крізь браму пекла, однак у повсякденному житті є абсолютно нормальною людиною. На щастя, Дель Торо в гніві відкидав подібні спроби тиску і зрештою схилив продюсерський штаб до своєї точки зору.
• Між іншим, Ґільєрмо цілком міг стати режисером третього «Гаррі Поттера».
• На зустрічі режисера (Дель Торо) і сценариста (Майк Міґнола) було прийнято рішення, що озвучувати Геллбоя буде актор Рон Перлман, який його і зіграв.
• Сюжет фільму заснований на однойменному коміксі, автором якого є Майк Міґнола. В якості основної сюжетної лінії взято один з коміксів цієї серії під назвою «Зерно руйнування». Деякі деталі були запозичені з «Правою руки Смерті» і «Зла коробка».
• Головних творців фільму можна побачити в маленьких епізодах. Майк Міґнола з'являється в ролі лицаря посеред натовпу людей, що загрожує Саммаелю. Ґільєрмо Дель Торо також можна побачити в цій масовці - він у костюмі дракона.
• На самому початку роботи над картиною, художники і гримери хотіли, щоб Гігантською кам'яної рукою стала ліва рука виконуючого роль Геллбоя актора, щоб дати йому повний контроль над правою. Однак Рон Перлман спокійнісінько впорався з усіма складнощами знімального процесу і своєю незручною, лівою рукою. У результаті вдалося досягти повної відповідності оригіналу, і «права рука Смерті» була збережена в сценарії.
• Ґільєрмо Дель Торо навмисно вставив у свою картину 45 секунд, упродовж яких ми можемо спостерігати лише чорний екран при повній відсутності звукового ряду. Багатьом прокатникам це здалося дуже дивним, і вони вирізали цю 45-секундну сцену, розцінивши її як божевілля режисера.
• Бюджет: $66,000,000
MediaInfo

Код:

General
Unique ID                        : 238590671291007046303638238975436917873 (0xB37EE44EE91D4868B7239DCD73D60C71)
Complete name                    : D:\HURTOM\Hellboy. Dilogy (2004-2008) 720p [Hurtom]\Hellboy (Director's Cut) (2004) [Ukr, Eng] 720p [Hurtom].mkv
Format                           : Matroska
File size                        : 8.25 GiB
Duration                         : 2h 12mn
Overall bit rate                 : 8 912 Kbps
Movie name                       : Hellboy (Director's Cut) (2004) [Ukr, Eng] 720p [Hurtom]
Encoded date                     : UTC 2011-10-28 10:30:01
Writing application              : mkvmerge v5.0.0 ('Die Wahre Liebe') built on Sep 25 2011 20:33:49
Writing library                  : libebml v1.2.2 + libmatroska v1.3.0

Video
ID                               : 1
Format                           : AVC
Format/Info                      : Advanced Video Codec
Format profile                   : [email protected]
Format settings, CABAC           : Yes
Format settings, ReFrames        : 7 frames
Codec ID                         : V_MPEG4/ISO/AVC
Duration                         : 2h 12mn
Bit rate                         : 7 016 Kbps
Width                            : 1 280 pixels
Height                           : 696 pixels
Display aspect ratio             : 16:9
Frame rate                       : 23.976 fps
Color space                      : YUV
Chroma subsampling               : 4:2:0
Bit depth                        : 8 bits
Scan type                        : Progressive
Bits/(Pixel*Frame)               : 0.328
Stream size                      : 6.33 GiB (77%)
Title                            : Hellboy (Director's Cut) (2004) [Ukr, Eng] 720p [Hurtom]
Writing library                  : core 98 r1649 20cbe10
Encoding settings                : cabac=1 / ref=8 / deblock=1:-3:-3 / analyse=0x3:0x113 / me=tesa / subme=10 / psy=1 / psy_rd=1.00:0.00 / mixed_ref=1 / me_range=64 / chroma_me=1 / trellis=2 / 8x8dct=1 / cqm=0 / deadzone=21,11 / fast_pskip=0 / chroma_qp_offset=-2 / threads=6 / sliced_threads=0 / nr=0 / decimate=1 / interlaced=0 / constrained_intra=0 / bframes=6 / b_pyramid=1 / b_adapt=2 / b_bias=0 / direct=3 / weightb=1 / weightp=2 / keyint=250 / keyint_min=25 / scenecut=40 / intra_refresh=0 / rc_lookahead=40 / rc=2pass / mbtree=1 / bitrate=7016 / ratetol=1.0 / qcomp=0.60 / qpmin=10 / qpmax=51 / qpstep=4 / cplxblur=20.0 / qblur=0.5 / ip_ratio=1.40 / aq=1:0.80
Language                         : English

Audio #1
ID                               : 2
Format                           : AC-3
Format/Info                      : Audio Coding 3
Mode extension                   : CM (complete main)
Codec ID                         : A_AC3
Duration                         : 2h 12mn
Bit rate mode                    : Constant
Bit rate                         : 384 Kbps
Channel(s)                       : 6 channels
Channel positions                : Front: L C R, Side: L R, LFE
Sampling rate                    : 48.0 KHz
Bit depth                        : 16 bits
Compression mode                 : Lossy
Stream size                      : 364 MiB (4%)
Title                            : 5.1 @ 384 kbps - багатоголосий закадровий Студія "Мова"
Language                         : Ukrainian

Audio #2
ID                               : 3
Format                           :
Format/Info                      : Digital Theater Systems
Codec ID                         : A_DTS
Duration                         : 2h 12mn
Bit rate mode                    : Constant
Bit rate                         : 1 510 Kbps
Channel(s)                       : 6 channels
Channel positions                : Front: L C R, Side: L R, LFE
Sampling rate                    : 48.0 KHz
Bit depth                        : 24 bits
Compression mode                 : Lossy
Stream size                      : 1.40 GiB (17%)
Title                            : 5.1 @ 1536 kbps
Language                         : English

Text
ID                               : 4
Format                           : UTF-8
Codec ID                         : S_TEXT/UTF8
Codec ID/Info                    : UTF-8 Plain Text
Language                         : English
Всі наявні релізи

Завантажити:
[url=] 720p Ukr/Eng | Sub Eng ((у складі дилогії)[/url] - багатоголосий закадровий Студія "Мова"
Ukr/Eng (4.74 GB (у складі дилогії) - багатоголосий закадровий Студія "Мова"

Ролі озвучили: Рон Перлман - Михайло Кришталь
Тривалість: 02:12:28 [Режисерська версія]
Якість: 720p (HiDt)
Відео:
кодек:
розмір кадру: 1280x696
бітрейт: 7016 кб/с

Аудіо # 1:
мова: українська
переклад: багатоголосий закадровий Студія "Мова"
кодек: 5.1
бітрейт: 384 кб/с

Аудіо # 2:
мова: англійська
переклад: оригінал
кодек: 5.1
бітрейт: 1536 кб/с

Субтитри:
мова: англійська
тип: програмні (м'які)
формат: *.srt

Скріншоти:


Хеллбой II: золота армія / Геллбой II: золота армія / Hellboy II: The Golden Army (2008) 720p 2xUkr/Eng | Sub Eng

Хеллбой II: золота армія / Геллбой II: золота армія / Hellboy II: The Golden Army (2008) 720p 2xUkr/Eng | Sub Eng




«Good never looked so bad.»


Жанр: фентезі, бойовик, пригодницький
Країна: США, Німеччина



Кіностудія / кінокомпанія: Universal Pictures, Dark Horse Entertainment, Internationale Filmproduktion Eagle
Режисер: Ґільєрмо Дель Торо (Guillermo del Toro)
Композитор: Денні Ельфмен (Danny Elfman)
Актори: Рон Перлман (Ron Perlman), Сельма Блер (Selma Blair), Даґ Джонс (Doug Jones), Джон Александер (John Alexander) та інші.

Сюжет:
Міфічний світ розпочинає повстання проти людства, щоб управляти Землею, таким чином Геллбой і його команда повинні врятувати світ від неслухняних істот.
Перемоги, номінації, цікаві факти

Оскар, 2009 рік
Номінації (1):
Найкращий грим

Премія каналу «MTV», 2009 рік
Номінації (2):
Найкраща бійка
Найкращий лиходій (Люк Ґосс)

Цікаві факти про фільм

• Крістоферу Лі пропонували роль Короля Балора, але він відмовився.
• Руперт Еванс (Агент Джон Майєрс з першого фільму) відмовився грати у фільмі на користь постановки «Поцілунок Жінки Павука» (2007).
• На озвучування Йогана Крауса претендував Томас Кречманн.
• Зйомки картини проходили з 8 червня по 21 листопада 2007 року.
• Пітер Джексон пропонував Ґільєрмо Дель Торо поставити «Гало», але той відмовився заради сиквела. З цієї ж причини він відмовився від запропонованих «Я - легенда», «Один пропущений дзвінок» і «Гаррі Поттер та напівкровний принц».
• Спочатку картину повинна були знімати Revolution Studios, але Sony вирішила більше не вкладати гроші в студію, а особливої ​​вигоди в продовженні «Геллбоя» вони не бачили, тому права на екранізацію були продані Universal, які були зовсім іншої думки.
• Рону Перлманом довелося відмовитися від ролі Пікколо у фільмі «Драгонболл» заради участі в сіквелі «Геллбоя».
• Робоча назва проекту «Геллбой 2».
• Це перший фільм, знятий у щойно побудованій студії Korda Studios у Будапешті (Угорщина).
• Бюджет: $72,000,000
MediaInfo

Код:

General
Unique ID                        : 170450829886143171664254776344463284685 (0x803BA2BF5ABFD33F90FA7E2F442819CD)
Complete name                    : D:\HURTOM\Hellboy. Dilogy (2004-2008) 720p [Hurtom]\Hellboy II. The Golden Army (2008) [2xUkr, Eng] 720p [Hurtom].mkv
Format                           : Matroska
File size                        : 8.80 GiB
Duration                         : 1h 59mn
Overall bit rate                 : 10.5 Mbps
Movie name                       : Hellboy II: The Golden Army (2008) [2xUkr, Eng] 720p [Hurtom]
Encoded date                     : UTC 2011-10-28 10:15:33
Writing application              : mkvmerge v5.0.0 ('Die Wahre Liebe') built on Sep 25 2011 20:33:49
Writing library                  : libebml v1.2.2 + libmatroska v1.3.0

Video
ID                               : 1
Format                           : AVC
Format/Info                      : Advanced Video Codec
Format profile                   : [email protected]
Format settings, CABAC           : Yes
Format settings, ReFrames        : 7 frames
Codec ID                         : V_MPEG4/ISO/AVC
Duration                         : 1h 59mn
Bit rate                         : 7 864 Kbps
Width                            : 1 280 pixels
Height                           : 694 pixels
Display aspect ratio             : 16:9
Frame rate                       : 23.976 fps
Color space                      : YUV
Chroma subsampling               : 4:2:0
Bit depth                        : 8 bits
Scan type                        : Progressive
Bits/(Pixel*Frame)               : 0.369
Stream size                      : 6.40 GiB (73%)
Title                            : Hellboy II: The Golden Army (2008) [2xUkr, Eng] 720p [Hurtom]
Writing library                  : core 98 r1649 20cbe10
Encoding settings                : cabac=1 / ref=8 / deblock=1:-3:-3 / analyse=0x3:0x113 / me=tesa / subme=10 / psy=1 / psy_rd=1.00:0.00 / mixed_ref=1 / me_range=64 / chroma_me=1 / trellis=2 / 8x8dct=1 / cqm=0 / deadzone=21,11 / fast_pskip=0 / chroma_qp_offset=-2 / threads=12 / sliced_threads=0 / nr=0 / decimate=1 / interlaced=0 / constrained_intra=0 / bframes=6 / b_pyramid=1 / b_adapt=2 / b_bias=0 / direct=3 / weightb=1 / weightp=2 / keyint=250 / keyint_min=25 / scenecut=40 / intra_refresh=0 / rc_lookahead=40 / rc=2pass / mbtree=1 / bitrate=7864 / ratetol=1.0 / qcomp=0.60 / qpmin=10 / qpmax=51 / qpstep=4 / cplxblur=20.0 / qblur=0.5 / ip_ratio=1.40 / aq=1:0.80
Language                         : English

Audio #1
ID                               : 2
Format                           : AC-3
Format/Info                      : Audio Coding 3
Mode extension                   : CM (complete main)
Codec ID                         : A_AC3
Duration                         : 1h 59mn
Bit rate mode                    : Constant
Bit rate                         : 384 Kbps
Channel(s)                       : 6 channels
Channel positions                : Front: L C R, Side: L R, LFE
Sampling rate                    : 48.0 KHz
Bit depth                        : 16 bits
Compression mode                 : Lossy
Stream size                      : 329 MiB (4%)
Title                            : 5.1 @ 384 kbps - професійний дубльований LeDoyen Studio; звук Line
Language                         : Ukrainian

Audio #2
ID                               : 3
Format                           : AC-3
Format/Info                      : Audio Coding 3
Mode extension                   : CM (complete main)
Codec ID                         : A_AC3
Duration                         : 1h 59mn
Bit rate mode                    : Constant
Bit rate                         : 192 Kbps
Channel(s)                       : 2 channels
Channel positions                : Front: L R
Sampling rate                    : 48.0 KHz
Bit depth                        : 16 bits
Compression mode                 : Lossy
Stream size                      : 164 MiB (2%)
Title                            : 2.0 @ 192 kbps - професійний дубльований LeDoyen Studio; звук Line
Language                         : Ukrainian

Audio #3
ID                               : 4
Format                           : AC-3
Format/Info                      : Audio Coding 3
Mode extension                   : CM (complete main)
Codec ID                         : A_AC3
Duration                         : 1h 59mn
Bit rate mode                    : Constant
Bit rate                         : 384 Kbps
Channel(s)                       : 6 channels
Channel positions                : Front: L C R, Side: L R, LFE
Sampling rate                    : 48.0 KHz
Bit depth                        : 16 bits
Compression mode                 : Lossy
Stream size                      : 329 MiB (4%)
Title                            : 5.1 @ 384 kbps - багатоголосий закадровий Студія "ТРК Україна"
Language                         : Ukrainian

Audio #4
ID                               : 5
Format                           : AC-3
Format/Info                      : Audio Coding 3
Mode extension                   : CM (complete main)
Codec ID                         : A_AC3
Duration                         : 1h 59mn
Bit rate mode                    : Constant
Bit rate                         : 192 Kbps
Channel(s)                       : 2 channels
Channel positions                : Front: L R
Sampling rate                    : 48.0 KHz
Bit depth                        : 16 bits
Compression mode                 : Lossy
Stream size                      : 164 MiB (2%)
Title                            : 2.0 @ 192 kbps - багатоголосий закадровий Студія "ТРК Україна"
Language                         : Ukrainian

Audio #5
ID                               : 6
Format                           :
Format/Info                      : Digital Theater Systems
Codec ID                         : A_DTS
Duration                         : 1h 59mn
Bit rate mode                    : Constant
Bit rate                         : 1 510 Kbps
Channel(s)                       : 6 channels
Channel positions                : Front: L C R, Side: L R, LFE
Sampling rate                    : 48.0 KHz
Bit depth                        : 24 bits
Compression mode                 : Lossy
Stream size                      : 1.26 GiB (14%)
Title                            : 5.1 @ 1536 kbps
Language                         : English

Text
ID                               : 7
Format                           : UTF-8
Codec ID                         : S_TEXT/UTF8
Codec ID/Info                    : UTF-8 Plain Text
Language                         : English
Всі наявні релізи

Завантажити:
[url=] 720p 2xUkr/Eng | Sub Eng ((у складі дилогії)[/url] - професійний дубльований LeDoyen Studio Звук LINE і багатоголосий закадровий Студія "ТРК Україна"

Remux 1080p Ukr/Eng | Sub Eng (20.03 GB) - професійний дубльований LeDoyen Studio Звук LINE
1080p Ukr/Eng | Sub Eng (10.16 GB) - професійний дубльований LeDoyen Studio Звук LINE
720p Ukr/Eng | Sub Eng (4.58 GB) - професійний дубльований LeDoyen Studio Звук LINE
Ukr/Eng (4.74 GB (у складі дилогії) - професійний дубльований LeDoyen Studio Звук LINE і багатоголосий закадровий Студія "ТРК Україна"
(1.37 GB) - професійний дубльований LeDoyen Studio Звук LINE

Про дубляж від LeDoyen Studio
Фільм надано компанією Universal Pictures International (UPI) дубльовано LeDoyen Studio на замовлення компанії B&H Film Distribution
Переклад і режисер дубляжу: Олекси Негребецького
Асистент режисера дубляжу: Катерина Шкуратенко
Звукорежисер: Дмитро Мялковський
Ролі дублювали: Рон Перлман/Геллбой – Олександр Ігнатуша, Сельма Блер/Ліз – Лілія Ребрик, Джон Александр/Краусс – Анатолій Зіновенко, Джефрі Тембор/Том Меннінг – Микола Карцев, Анна Волтон/Принцеса Нуала – Олена Узлюк, Ейб – Андрій Бондар, Люк Ґосс/Принц Нуада – Ігор Гнізділов, Євген Малуха, титри і назву фільму - Володимир Нечепоренко та інші.

Про озвучення від Студії "ТРК Україна"
Ролі озвучили:
Тривалість: 01:59:40
Якість: 720p (HiDt)
Відео:
кодек:
розмір кадру: 1280x694
бітрейт: 7864 кб/с

Аудіо # 1:
мова: українська
переклад: професійний дубльований LeDoyen Studio | звук Line
кодек: 5.1
бітрейт: 384 кб/с

Аудіо # 2:
мова: українська
переклад: професійний дубльований LeDoyen Studio | звук Line
кодек: 2.0
бітрейт: 192 кб/с

Аудіо # 3:
мова: українська
переклад: багатоголосий закадровий Студія "ТРК Україна"
кодек: 5.1
бітрейт: 384 кб/с

Аудіо # 4:
мова: українська
переклад: багатоголосий закадровий Студія "ТРК Україна"
кодек: 2.0
бітрейт: 192 кб/с

Аудіо # 5:
мова: англійська
переклад: оригінал
кодек: 5.1
бітрейт: 1536 кб/с

Субтитри:
мова: англійська
тип: програмні (м'які)
формат: *.srt

Скріншоти:


Цитата:



За створення доріжки 5.1 до першої частини, 2.0 до другої частини, а також люб'язно надані коди подяка robotron005,
за створення доріжок 5.1 до другої частини подяка Lan-y
за запис доріжки з тб від студій ТРК "Україна" і "Мова" подяка MAKAPOHHIK-y
за запис доріжки з тб від студії "Мова" подяка karvai0
за запис дубляжу подяка НЕВІДОМОМУ ГЕРОЮ



Джерело:

Особиста оцінка: 10/не дивився


Бронзовий реліз (на рейтинг впливає 75% завантаженого)
 Трекер:    Зареєстрований   

Завантажити / скачати фільм українською



відео для новачків



 Зареєстрований:   2011-10-28 15:34
 Розмір:   17.05 GB 
 Оцінка фільму:   8.8/10 (Голосів: 13)
   
leroykendall 
Модератор HD


З нами з: 03.01.11
Востаннє: 20.11.16
Повідомлень: 749

2011-10-29 10:17  
w2958l написано:
Цитата:
Не пропустіть також на толоці два спін-офф мультфільма -

Хеллбой: Меч Штормів / Hellboy Animated Sword Of Storms (2006)
Хеллбой: Кров і Залізо / Hellboy Animated: Blood and Iron (2007)

Ось ще є Хелбой Animated: Дилогія / Hellboy Animated: Dilogy (2006/2007) 720p

Віктор 
Відео Гуртом - субтитрування
Відео Гуртом - субтитрування


З нами з: 09.01.10
Востаннє: 06.12.16
Повідомлень: 8663

2011-10-29 12:19  
leroykendall написано:
Ось ще є Хелбой Animated: Дилогія / Hellboy Animated: Dilogy (2006/2007) 720p


Дякую.

Olkos 
VIP


З нами з: 07.03.09
Востаннє: 05.12.16
Повідомлень: 534

2012-05-28 19:18  
станьте, будь ласка, ще хтось на роздачу
дякую!

igor1zz 
Новенький


З нами з: 29.11.14
Востаннє: 14.11.16
Повідомлень: 5

2015-10-22 20:39  
ЛЮДИ добрі! Будь ласка дайте завантажити.
giroi 
Новенький


З нами з: 02.05.14
Востаннє: 05.12.16
Повідомлень: 4

2015-11-06 21:22  
Є запитання. В неділю та понеділок 01-02 листопада на Новому каналі показували першу частину українською, але з іншою озвучкою. Ніхто не підкаже де можна взяти цю доріжку, а то дружині цей варіант (від Мови) не сподобався, на відміну від того що був на Новому.
ser.gutsalyuk 
Новенький


З нами з: 05.08.15
Востаннє: 05.12.16
Повідомлень: 6

2016-04-27 08:55  
Будь ласка роздайте хтось, тиждень вже завантажую..якщо не 2))
Ваш часовий пояс: GMT + 2 Години

Нова тема   Відповісти