Таємне вікно / Secret Window (2004) 720p Ukr/Eng | Sub Eng

Нові коментарі

Нова тема   Відповісти
Автор Повідомлення
DеLight 
Відео Гуртом - фільмокрай
Відео Гуртом - фільмокрай


З нами з: 24.08.11
Востаннє: 18.01.17
Повідомлень: 663

2011-10-27 21:47  
Таємне вікно / Secret Window (2004) 720p Ukr/Eng | Sub Eng



Альтернативні постери






Жанр: містика, триллер
Країна: США



Кіностудія / кінокомпанія: Columbia Pictures Corporation, Grand Slam Productions, Pariah Entertainment Group
Режисер: Девід Кепп / David Koepp
Актори: Джонні Депп / Johnny Depp, Джон Туртурро / John Turturro, Марія Белло / Maria Bello, Тімоті Хаттон / Timothy Hutton, Чарльз С. Даттон / Charles S. Dutton, Лен Каріу / Len Cariou, Джон Хені / Joan Heney, Джон Данн-Хілл / John Dunn-Hill, Власта Врана / Vlasta Vrana, Метт Холланд / Matt Holland, Джилліан Феррабі / Gillian Ferrabee, Бронвен Мантель / Bronwen Mantel, Елізабет Марло / Elizabeth Marleau, Кайл Аллатт / Kyle Allatt, Річард Ютрас / Richard Jutras

Фільм є екранізацією романа найвідомішого автора триллерів - Стівена Кінга. Цього разу картина оповідає про талановитого і успішного письменника Морте Рейні, який переживає не самі кращі часи в своєму житті. Після того, як він застав свою дружину в ліжку з іншим чоловіком і пережив втомливі формальності розлучення, Морт вирішує віддалитися від справ, переїхати за місто і в тиші сільського життя боротися з творчою кризою, що осягнула його.
І все було добре до тих пір, поки одного дня вночі в його будинок не увірвався незнайомець, що звинуватив Морта в плагіаті. Джон Шутер був дуже схожий на психопата, а його пістолет - на справжній, аби Морту прийшла в голову ідея з ним сперечатися. І коли письменник спробував переконати співбесідника в своїй правоті, показавши йому рукописи книги, він зіткнувся з невеликою проблемою - рукопис безслідно зник.



Тривалість: 01:35:55
Якість: 720p

Відео:
кодек:
розмір кадру: 1280 x 534
бітрейт: 5 005 кб/с

Аудіо # 1:
мова: українська
переклад: багатоголосий закадровий
кодек: 5.1
бітрейт: 448 кб/с

Аудіо # 2:
мова: українська
переклад: багатоголосий закадровий
кодек: 2.0
бітрейт: 192 кб/с

Джерело озвучення:


Аудіо # 3:
мова: англійська
переклад: оригінал
кодек: 5.1
бітрейт: 448 кб/с

Аудіо # 4:
мова: англійська
переклад: оригінал (коментарі)
кодек: 2.0
бітрейт: 192 кб/с

Субтитри:
мова: англійська
тип: програмні (м'які)
формат: *.srt



->переглянути<-

General
Unique ID : 221058008017473005642335266716591192567 (0xA64E3944F9ED6C76B4D136346E55F9F7)
Complete name : D:\Torrents\Secret Window (2004) 720p [Ukr, Eng] [Hurtom].mkv
Format : Matroska
File size : 4.21 GiB
Duration : 1h 35mn
Overall bit rate : 6 286 Kbps
Movie name : Secret Window (2004) 720p [Ukr, Eng] [Hurtom] by Dony
Encoded date : UTC 2011-10-27 18:04:46
Writing application : mkvmerge v4.8.0 ('I Got The...') зібрано May 24 2011 03:12:58
Writing library : libebml v1.2.0 + libmatroska v1.1.0

Video
ID : 1
Format : AVC
Format/Info : Advanced Video Codec
Format profile : [email protected]
Format settings, CABAC : Yes
Format settings, ReFrames : 8 frames
Format settings, GOP : M=1, N=24
Codec ID : V_MPEG4/ISO/AVC
Duration : 1h 35mn
Bit rate : 5 005 Kbps
Width : 1 280 pixels
Height : 534 pixels
Display aspect ratio : 2.35:1
Frame rate : 23.976 fps
Color space : YUV
Chroma subsampling : 4:2:0
Bit depth : 8 bits
Scan type : Progressive
Bits/(Pixel*Frame) : 0.305
Stream size : 3.27 GiB (78%)
Title : Secret Window (2004) 720p
Writing library : core 104 r1703 cd21d05
Encoding settings : cabac=1 / ref=8 / deblock=1:-3:-3 / analyse=0x3:0x113 / me=umh / subme=9 / psy=1 / psy_rd=1.05:0.10 / mixed_ref=1 / me_range=32 / chroma_me=1 / trellis=2 / 8x8dct=1 / cqm=0 / deadzone=21,11 / fast_pskip=0 / chroma_qp_offset=-2 / threads=12 / sliced_threads=0 / nr=0 / decimate=1 / interlaced=0 / constrained_intra=0 / bframes=5 / b_pyramid=2 / b_adapt=2 / b_bias=0 / direct=3 / weightb=1 / open_gop=0 / weightp=2 / keyint=250 / keyint_min=23 / scenecut=40 / intra_refresh=0 / rc_lookahead=60 / rc=2pass / mbtree=1 / bitrate=5005 / ratetol=1.0 / qcomp=0.60 / qpmin=10 / qpmax=51 / qpstep=4 / cplxblur=20.0 / qblur=0.5 / vbv_maxrate=50000 / vbv_bufsize=50000 / ip_ratio=1.40 / aq=1:0.70 / nal_hrd=none
Language : English

Audio #1
ID : 2
Format : AC-3
Format/Info : Audio Coding 3
Mode extension : CM (complete main)
Codec ID : A_AC3
Duration : 1h 35mn
Bit rate mode : Constant
Bit rate : 448 Kbps
Channel(s) : 6 channels
Channel positions : Front: L C R, Side: L R, LFE
Sampling rate : 48.0 KHz
Bit depth : 16 bits
Compression mode : Lossy
Stream size : 307 MiB (7%)
Title : 5.1; 448 kbps; багатоголосий закадровий {Інтер}
Language : Ukrainian

Audio #2
ID : 3
Format : AC-3
Format/Info : Audio Coding 3
Mode extension : CM (complete main)
Codec ID : A_AC3
Duration : 1h 35mn
Bit rate mode : Constant
Bit rate : 192 Kbps
Channel(s) : 2 channels
Channel positions : Front: L R
Sampling rate : 48.0 KHz
Bit depth : 16 bits
Compression mode : Lossy
Stream size : 132 MiB (3%)
Title : 2.0; 192 kbps; багатоголосий закадровий {Інтер}
Language : Ukrainian

Audio #3
ID : 4
Format : AC-3
Format/Info : Audio Coding 3
Mode extension : CM (complete main)
Codec ID : A_AC3
Duration : 1h 35mn
Bit rate mode : Constant
Bit rate : 448 Kbps
Channel(s) : 6 channels
Channel positions : Front: L C R, Side: L R, LFE
Sampling rate : 48.0 KHz
Bit depth : 16 bits
Compression mode : Lossy
Stream size : 307 MiB (7%)
Title : 5.1; 448 kbps; original
Language : English

Audio #4
ID : 5
Format : AC-3
Format/Info : Audio Coding 3
Format profile : Dolby Digital
Mode extension : CM (complete main)
Codec ID : A_AC3
Duration : 1h 35mn
Bit rate mode : Constant
Bit rate : 192 Kbps
Channel(s) : 2 channels
Channel positions : Front: L R
Sampling rate : 48.0 KHz
Bit depth : 16 bits
Compression mode : Lossy
Stream size : 132 MiB (3%)
Title : 2.0; 192 kbps; commentary
Language : English

Text
ID : 6
Format : UTF-8
Codec ID : S_TEXT/UTF8
Codec ID/Info : UTF-8 Plain Text
Language : English




->переглянути<-









Джерело: &
Подяка Romario_O за українську доріжку та yuraflash за українізований постер
Особиста оцінка: 8 - мені сподобалося


Фріліч (завантажене не впливає на рейтинг)
 Трекер:    Зареєстрований   

Завантажити фільм українською



відео для новачків



 Зареєстрований:   2011-10-27 21:47
 Розмір:   4.21 GB 
 Оцінка фільму:   9.3/10 (Голосів: 23)
   
Інші релізи
   Таємне вікно / Secret Window (2004) 1080p Ukr/Eng | Sub Eng ratbol  1 / 0   8.36 GB   2012-03-16 22:05 
   Таємне вікно / Secret Window (2004) Ukr/Eng | Sub Eng Romario_O  6 / 1   1.76 GB   2009-11-28 18:08 
DiGen 
Модератор HD та координатор Команди HD
Модератор HD та координатор Команди HD


З нами з: 12.11.09
Востаннє: 24.06.13
Повідомлень: 1451

2011-10-28 07:50  
То це дві доріжки від Інтеру?
DеLight 
Відео Гуртом - фільмокрай
Відео Гуртом - фільмокрай


З нами з: 24.08.11
Востаннє: 18.01.17
Повідомлень: 663

2011-10-28 09:33  
DiGen написано:
То це дві доріжки від Інтеру?
Так. В Медіаінфо це написано.
DejaVu 
Відео Гуртом - підтримка та поширення
Відео Гуртом - підтримка та поширення


З нами з: 20.12.10
Востаннє: 21.01.17
Повідомлень: 754

2011-10-28 09:36  
Dоnу
То допиши)
Dоnу написано:
2хUkr/Eng | Sub Eng

DеLight 
Відео Гуртом - фільмокрай
Відео Гуртом - фільмокрай


З нами з: 24.08.11
Востаннє: 18.01.17
Повідомлень: 663

2011-10-28 09:42  
DejaVu

Так вони ідентичні, просто з різним числом каналів, якби різні - то потрібно було б дописати, а так не думаю, що є потреба писати 2Ukr Wink (1)

imonko 
Відео Гуртом - фільмокрай
Відео Гуртом - фільмокрай


З нами з: 20.07.08
Востаннє: 29.12.16
Повідомлень: 7309

2011-10-28 10:30  
опис релізу важкочитабельний(
DеLight 
Відео Гуртом - фільмокрай
Відео Гуртом - фільмокрай


З нами з: 24.08.11
Востаннє: 18.01.17
Повідомлень: 663

2011-10-28 10:58  
imonko

Чому? Шрифти не міняв. Чи це на Вас так діють червоні написи: опис і скріншоти? Happy

Virake 
Localize Team
Localize Team


З нами з: 07.07.09
Востаннє: 21.01.17
Повідомлень: 4133

2011-10-28 11:23  
колись дивився цей фільм. і так і не второпав, до чого тут вікно (та ще й таємне), якщо в гг роздвоєння особистості.
imonko 
Відео Гуртом - фільмокрай
Відео Гуртом - фільмокрай


З нами з: 20.07.08
Востаннє: 29.12.16
Повідомлень: 7309

2011-10-28 16:55  
саме так картинки перед "аудіо" "відео" відмолікають, але то моє імхо, я за стандартне оформлення з майстра, з незначними корективами, але тут перебір
DеLight 
Відео Гуртом - фільмокрай
Відео Гуртом - фільмокрай


З нами з: 24.08.11
Востаннє: 18.01.17
Повідомлень: 663

2011-10-28 17:56  
imonko написано:
саме так картинки перед "аудіо" "відео" відмолікають, але то моє імхо, я за стандартне оформлення з майстра, з незначними корективами, але тут перебір
Не думаю, що тут вже такий значний перебір, є набагато "кольровіші" релізи. А декілька маленьких ярличків не є поганим для огляду.
Віктор 
Відео Гуртом - субтитрування
Відео Гуртом - субтитрування


З нами з: 09.01.10
Востаннє: 21.01.17
Повідомлень: 8679

2011-10-28 18:05  
imonko написано:
з незначними корективами, але тут перебір

Та нормальне оформлення, нічого не стрибає, не крутиться, не блимає як світлофор чи новорічна ялинка.)

leroykendall 
Модератор HD


З нами з: 03.01.11
Востаннє: 11.01.17
Повідомлень: 749

2011-10-29 07:20  
Фільм має бути непоганим. Очікуємо на перевірку.
Ваш часовий пояс: GMT + 2 Години

Нова тема   Відповісти