Завантажити та скачати торренти українською


КораЛЛі - Є! (2011) [FLAC] | Ethno / Funk / Rock

Нові коментарі

Нова тема   Відповісти
Останній раз роздавалося ingulets (2016-11-20)
Автор Повідомлення
nothaven 
Новенький


З нами з: 12.07.09
Востаннє: 06.09.16
Повідомлень: 2

2011-10-27 19:51  
КораЛЛі - Є! (2011) [FLAC] | Ethno / Funk / Rock



Стиль: Ethno, Funk, Rock
Країна, місто: Україна, Івано-Франківськ
Сайти: Офіційний сайт
Видавець: UKRmusic
Виконавці:
Юрко Адамчак - вокал, гітара;
Василь Юзьков - бас гітара, скрипка;
Мишко Адамчак - клавіші, сопілка;
Вітя Кукуруза - барабани, тамбурин;
Віля Чупак – трембіта, дримба.
Пісні:
    01 Схиблені
    02 Феномен
    03 Августа
    04 Ой, Не Буду
    05 AutoСтопПер
    06 Вагабунда
    07 КораЛЛі Є!
    08 Поза Нашов Хатов
    09 Хочу Сина
    10 Кобіта Ганна
    11 Полечко
    12 Карпати
    13 Миша
    14 Гуцульська Фантазія
    15 Сонце

Тривалість: 00:46:50
Мова: українська
Аудіо-кодек: FLAC
Бітрейт: 1017 кб/с
Джерело: власний ріп
log
Exact Audio Copy V1.0 beta 3 from 29. August 2011

EAC extraction logfile from 27. October 2011, 17:44

КораЛЛі / Є!

Used drive : _NEC DVD_RW ND-4550A Adapter: 0 ID: 0

Read mode : Burst

Read offset correction : 0
Overread into Lead-In and Lead-Out : No
Fill up missing offset samples with silence : Yes
Delete leading and trailing silent blocks : No
Null samples used in CRC calculations : Yes
Used interface : Native Win32 interface for Win NT & 2000

Used output format : Internal WAV Routines
Sample format : 44.100 Hz; 16 Bit; Stereo

TOC of the extracted CD

Track | Start | Length | Start sector | End sector
---------------------------------------------------------
1 | 0:00.00 | 3:08.00 | 0 | 14099
2 | 3:08.00 | 3:32.46 | 14100 | 30045
3 | 6:40.46 | 3:06.50 | 30046 | 44045
4 | 9:47.21 | 2:36.60 | 44046 | 55805
5 | 12:24.06 | 2:21.06 | 55806 | 66386
6 | 14:45.12 | 2:44.00 | 66387 | 78686
7 | 17:29.12 | 2:44.69 | 78687 | 91055
8 | 20:14.06 | 2:59.58 | 91056 | 104538
9 | 23:13.64 | 3:29.32 | 104539 | 120245
10 | 26:43.21 | 3:32.50 | 120246 | 136195
11 | 30:15.71 | 3:32.01 | 136196 | 152096
12 | 33:47.72 | 2:22.56 | 152097 | 162802
13 | 36:10.53 | 3:14.42 | 162803 | 177394
14 | 39:25.20 | 4:24.62 | 177395 | 197256
15 | 43:50.07 | 3:00.00 | 197257 | 210756

Range status and errors

Selected range

Filename C:\КораЛЛі - Є!.wav

Timing problem 0:00:10

Peak level 100.0 %
Extraction speed 22.9 X
Copy CRC 575F690E
Copy finished

No errors occurred

End of status report
Додаткова інформація:
Карпатські аллігатори, знані як Рок-Вар’ятЕ «КораЛЛі» врешті-решт «дофестивалилися» до повноцінного альбому «Є!». Нагадаємо, що трохи менше року, як «карпатчики» святкували «різдво» міні-дебютника «Кралі» («три гіти для і про кобіт»), що вже встиг погуляти музичним простором Неньки.


Якщо Ви справді бажаєте підтримати українське - після прослуховування, якщо музика вам сподобалась, придбайте ліцензійний диск. Підтримаймо вітчизняних виконавців!


Срібний реліз (на рейтинг впливає 50% завантаженого)
 Трекер:    Зареєстрований   

Завантажити / скачати українську музику



відео для новачків



 Зареєстрований:   2011-10-27 19:57
 Розмір:   341 MB 
 Оцінка музики:   10/10 (Голосів: 22)
   
xfsthe 
Оцифрування книг Гуртом
Оцифрування книг Гуртом


З нами з: 13.02.11
Востаннє: 11.12.16
Повідомлень: 279

2011-10-27 22:50  
mp3 буде?
ahilbaca 
Свій


З нами з: 04.12.09
Востаннє: 10.12.16
Повідомлень: 118

2011-11-20 22:22  
Сила! Дуже-дуже хороший гурт!
Doggy92 
Новенький


З нами з: 05.08.12
Востаннє: 05.03.13
Повідомлень: 3

2012-08-22 09:35  
На фесті ЗАХІД вони були круті!! качаю)))
Ваш часовий пояс: GMT + 2 Години

Нова тема   Відповісти