Завантажити та скачати торренти українською


Георгій Матвіїв - На межі / On The Edge (2009) [FLAC] | Ethno

Нові коментарі

Нова тема   Відповісти
Автор Повідомлення
ingwar 
Модератор літератури


З нами з: 08.03.08
Востаннє: 09.12.16
Повідомлень: 1200

2011-10-27 07:24  
Георгій Матвіїв - На межі / On The Edge (2009) [FLAC] | Ethno



Стиль: Ethno, Folk
Країна, місто: Україна, Одеса
Сайти: Офіційний сайт
Видавець: Мельничук В.В., СПД
Виконавці:
Бандура - Георгій Матвіїв
Гітара - Олег Бейлик (доріжка 4)
Евген Мартьянов (доріжка 7)
Ударні - Ігор Рассамаха (доріжка 7)
Пісні:
    1. Prelude and Fugue
    2. Improvisation on the folk theme #2
    3. Journey home
    4. Foretaste
    5. On the edge
    6. Introduction and Toccata
    7. My Angel

Тривалість: 00:43:56
Мова: немає (інструментальні композиції)
Аудіо-кодек: FLAC
Бітрейт: 560 кб/с
Джерело: Власний ріп
Додаткова інформація:
Бандура Георгія Матвіїва стала і цікавою, і важливою окрасою "Тисячі світлих ангелів" – останнього на сьогодні альбому Fleur. Ну а зараз перед Вами – чудова нагода переконатися, що випадковостей не буває. Адже в Одесі живе і працює не один бандурист – але запросили заграти на згаданому альбомі саме Георгія. Отже, слухайте уважно – втім, по-іншому все одно не вийде. Такими своєрідними, дещо незвичними, але ж красивими виявляються візерунки, створені грою Георгія – думаю, Ви і не помітите, як прослухаєте цей диск кілька разів підряд. Тут під філософсько-ліричною одежею ховається чимало чистого вогню і сильного повітря – їх відчуваєш навіть у абсолютно спокійних, здавалося б, фрагментах. І, навпаки, навіть у найбільш експресивні моменти – залишається відчуття рівноваги, споглядальності. Зрештою, варто пам’ятати, що на альбомі звучить авторська музика – і вона здатна, як мінімум, розширити традиційні уявлення щодо звучання і застосування бандури. Особисто я досі був знайомий з музикою лише одного бандуриста такого плану – Романа Гриньківа. Але його гру можна почути лише на записах Al Di Meola, Jazz Impression, кількох інших проектів – сольних альбомів, на жаль, немає. Принаймні, виданих в Україні. Тож тим приємніше звернути увагу, що Матвіїв, крім представленого, має ще один альбом ("Exit"). І дуже сподіваюся, що його дискографія ростиме швидко і якісно – всім нам на втіху.
log
Exact Audio Copy V1.0 beta 2 from 29. April 2011

EAC extraction logfile from 9. September 2011, 9:35

Georgiy Matviyiv / On The Edge

Used drive : HL-DT-STDVDRAM GSA-T20L Adapter: 1 ID: 0

Read mode : Secure
Utilize accurate stream : Yes
Defeat audio cache : Yes
Make use of C2 pointers : Yes

Combined read/write offset correction : 0
Overread into Lead-In and Lead-Out : No
Fill up missing offset samples with silence : Yes
Delete leading and trailing silent blocks : No
Null samples used in CRC calculations : No
Used interface : Native Win32 interface for Win NT & 2000

Used output format : User Defined Encoder
Selected bitrate : 768 kBit/s
Quality : High
Add ID3 tag : No
Command line compressor : C:\Program Files\Exact Audio Copy\FLAC\FLAC.EXE
Additional command line options : -6 -V -T "ARTIST=%artist%" -T "TITLE=%title%" -T "ALBUM=%albumtitle%" -T "DATE=%year%" -T "TRACKNUMBER=%tracknr%" -T "GENRE=%genre%" -T "COMMENT=%comment%" -T "BAND=%albuminterpret%" -T "COMPOSER=%composer%" %haslyrics%--ta

TOC of the extracted CD

Track | Start | Length | Start sector | End sector
---------------------------------------------------------
1 | 0:00.00 | 5:35.54 | 0 | 25178
2 | 5:35.54 | 4:43.42 | 25179 | 46445
3 | 10:19.21 | 7:38.37 | 46446 | 80832
4 | 17:57.58 | 3:38.61 | 80833 | 97243
5 | 21:36.44 | 7:19.43 | 97244 | 130211
6 | 28:56.12 | 9:08.15 | 130212 | 171326
7 | 38:04.27 | 5:51.61 | 171327 | 197712

Range status and errors

Selected range

Filename C:\Users\IC\Music\Georgiy Matviyiv - On The Edge\Georgiy Matviyiv - On The Edge.wav

Peak level 100.0 %
Extraction speed 5.4 X
Range quality 100.0 %
Copy CRC 5F122771
Copy OK

No errors occurred

End of status report
Якщо Ви справді бажаєте підтримати українське - після прослуховування, якщо музика вам сподобалась, придбайте ліцензійний диск. Підтримаймо вітчизняних виконавців!


Срібний реліз (на рейтинг впливає 50% завантаженого)
 Трекер:    Зареєстрований   

Завантажити / скачати українську музику



відео для новачків



 Зареєстрований:   2011-10-27 07:24
 Розмір:   176 MB 
 Оцінка музики:   9.9/10 (Голосів: 10)
   
Skiff 
музика
музика


З нами з: 12.11.07
Востаннє: 09.12.16
Повідомлень: 3051

2011-10-27 07:54  
Цитата:
Виконавці:
Бандура - Георгій Матвіїв
Гітара - Олег Бейлик (доріжка 4)
Евген Мартьянов (доріжка 7)
Ударні - Ігор Рассамаха (доріжка 7)

Vasyl37 
Свій


З нами з: 24.12.10
Востаннє: 09.12.16
Повідомлень: 86

2012-12-30 23:46  
Дякую
Ваш часовий пояс: GMT + 2 Години

Нова тема   Відповісти