Завантажити та скачати торренти українською


Ю. Андрухович, Р. Рось - Ідеальні фрази, Jazz Bez (2010) DVD 5| Джаз

Нові коментарі

Нова тема   Відповісти
Автор Повідомлення
LOLOLO 
Свій


З нами з: 04.03.10
Востаннє: 28.11.16
Повідомлень: 128

2011-10-26 08:37  
Ю. Андрухович, Р. Рось - Ідеальні фрази, Jazz Bez (2010) DVD 5 | Джаз




Стиль: Acoustic Avantgarde Jazz
Країна, місто: Україна, Івано-Франківськ
Сайти: Офіційний сайт
Виконавці: Юрій Андрухович, Роман Рось

Тривалість: 01:08:03
Якість: CAMRip
Відео:
кодек: MPEG-2 DVD
розмір кадру: 720x576 (4:3)
бітрейт: 9610 кб/с

Аудіо:
мова: українська
кодек: MP1
бітрейт: 256 кб/с

Технічні деталі
Complete name : E:\FRAZY\VIDEO_TS\VTS_02_2.VOB
Format : MPEG-PS
File size : 1 024 MiB
Duration : 17mn 3s
Overall bit rate : 8 394 Kbps

Video
ID : 224 (0xE0)
Format : MPEG Video
Format version : Version 2
Format profile : [email protected]
Format settings, BVOP : Yes
Format settings, Matrix : Default
Format settings, GOP : M=3, N=15
Duration : 17mn 3s
Bit rate mode : Variable
Bit rate : 7 971 Kbps
Nominal bit rate : 9 610 Kbps
Width : 720 pixels
Height : 576 pixels
Display aspect ratio : 4:3
Frame rate : 25.000 fps
Standard : PAL
Color space : YUV
Chroma subsampling : 4:2:0
Bit depth : 8 bits
Scan type : Interlaced
Scan order : Bottom Field First
Bits/(Pixel*Frame) : 0.769
Stream size : 972 MiB (95%)

Audio
ID : 192 (0xC0)
Format : MPEG Audio
Format version : Version 1
Format profile : Layer 2
Duration : 17mn 3s
Bit rate mode : Constant
Bit rate : 256 Kbps
Channel(s) : 2 channels
Sampling rate : 48.0 KHz
Video delay : -384ms
Stream size : 31.2 MiB (3%)

Menu
Скріншоти:









Додаткова інформація

Виступ Андруховича та Рося в Івано-Франківську в грудні 2010 року в рамках фестивалю Jazz Bez. Андрухович під скрипкові експерименти Рося записує на проекторі фрази. Зі своїх текстів та інші. Експеримент. Деталі - в інтерв'ю. Інтерв'ю - на диску окремим файлом. Знято на одну камеру.

Відео надано зі згоди та благословення Ю. Андруховича і Р. Рося.

«Jazz Bez» ― один із найвідоміших та найбільш тривалих джазових фестивалів нашої країни, котрому не лише до снаги успішно прожити 10 років, але й вдається кожного разу збільшувати аудиторію, запрошувати титулованих виконавців з цілого світу та приєднувати до джазового руху нові міста. Почавшись у 2000 році з виступів кількох джазових колективів у Львові та Перемишлі, тепер «Jazz Bez» поширився на культурні центри України та Польщі і щороку дивує грою кращих джазових музикантів.
Джерело:
Особиста оцінка: 10 - без зайвих вагань рекомендую всім!


Золотий реліз (завантажене не впливає на рейтинг)
 Трекер:    Зареєстрований   

Завантажити / скачати кліп українською



відео для новачків



 Зареєстрований:   2011-10-26 08:37
 Розмір:   4.04 GB 
 Оцінка кліпу:   10/10 (Голосів: 7)
   
Ukriner 
Частий відвідувач


З нами з: 26.05.11
Востаннє: 02.12.16
Повідомлень: 43

2011-10-26 10:06  
Питання:
1. Чи буде менший розмір?
2. Цей варіант програватимуть побутові ДВД?

Дякую за реліз і відповіді.

LOLOLO 
Свій


З нами з: 04.03.10
Востаннє: 28.11.16
Повідомлень: 128

2011-10-26 10:10  
Ukriner написано:

1. Чи буде менший розмір?
2. Цей варіант програватимуть побутові ДВД?


1. менший робити наміру не мав.. не маю навичок, часу і місця, а ще комп не надто вигрібає, коли якісь серйозні проги включаю.. Хіба, як хто зробить, ніц не матиму проти..

2. мій ВВК програє..
Прошу

Ukriner 
Частий відвідувач


З нами з: 26.05.11
Востаннє: 02.12.16
Повідомлень: 43

2011-10-26 11:22  
Дякую! В мене теж ВВК, тож запишу для колекції (не зважаючи на розмір). Ще раз дуже вдячний за ТАКЕ відео.
LOLOLO 
Свій


З нами з: 04.03.10
Востаннє: 28.11.16
Повідомлень: 128

2011-10-26 12:18  
Всім приємного перегляду.
lpershyi 
Попереджень: 2
Попереджень: 2 


З нами з: 04.01.11
Востаннє: 30.11.16
Повідомлень: 2622

2011-10-26 13:31  
а де золото?
LOLOLO 
Свій


З нами з: 04.03.10
Востаннє: 28.11.16
Повідомлень: 128

2011-10-26 14:01  
lpershyi
яке?

lpershyi 
Попереджень: 2
Попереджень: 2 


З нами з: 04.01.11
Востаннє: 30.11.16
Повідомлень: 2622

2011-10-26 14:28  
LOLOLO написано:
яке?
на всі українські унікальні релізи зазвичай дають "золото". Питання "де золото?" до перевіряючих!
LOLOLO 
Свій


З нами з: 04.03.10
Востаннє: 28.11.16
Повідомлень: 128

2011-10-28 07:39  
Шановні модератори! Статус "очікується перевірка" - досі через брак часу чи є якісь зауваження? Воно, звичайно не впливає на роздачу, але якось насторожує...
Ваш часовий пояс: GMT + 2 Години

Нова тема   Відповісти