Завантажити та скачати торренти українською


Зелений ліхтар / Green Lantern (2011) 720p Ukr/Eng | Sub Eng

Нові коментарі

Нова тема   Відповісти
Автор Повідомлення
Віктор 
Відео Гуртом - субтитрування
Відео Гуртом - субтитрування


З нами з: 09.01.10
Востаннє: 09.12.16
Повідомлень: 8663

2011-10-19 08:20  
Зелений ліхтар / Green Lantern (2011) 720p Ukr/Eng | Sub Eng

Steelbook
+Ще 2 постера
«In brightest day, in blackest night, no evil shall escape my sight.»


Жанр: фантастика, пригодницький
Країна: США



Кіностудія / кінокомпанія: Warner Bros. Pictures, De Line Pictures, DC Entertainment
Режисер: Мартін Кемпбелл (Martin Campbell)
Композитор: Джеймс Ньютон Говард (James Newton Howard)
Актори: Раян Рейнольдс (Ryan Reynolds), Блейк Лівлі (Blake Lively), Пітер Сарсґаард (Peter Sarsgaard), Марк Стронґ (Mark Strong), Тім Роббінс (Tim Robbins) та інші.

Сюжет:
Екранізація чергових героїв всесвіту DC Comics. З давніх давен у космосі існував орден галактичних захисників- орден "Зелених Ліхтарів", який захищав мир та справедливість у Всесвіті. Його члени володіли перснями, які надавали їм надзвичайних здібностей, а відбір кандидатів на членство в ордені був надзвичайно суворий і ретельний. Але через прикру випадковість один з перснів потрапляє до рук звичайного землянина Гела Джордана, якому супер-артефакт віддає перед смертю один з членів ордену. Гел - пілот-випробувач, сміливий до ідіотизму, що часто призводить до різноманітних халеп і неприємностей, від чого не в захваті навіть його друзі та керівництво - що вже казати про суворих членів ордену, яким доводиться мати справу з норовливим новачком. Але виявляється, що саме такий, не обмежений суворим вихованням член ордену і потрібен "Зеленим Ліхтарям", які поступово програють галактичну війну.
Цікаві факти

Цікаві факти про фільм

• Зелений ліхтар був створений автором Біллом Фінгером і художником Мартіном Ноделлом в All-American Comics # 16 (липень 1940).
• Головними претендентами на роль Зеленого ліхтаря, крім Раяна Рейнольдса, були Бредлі Купер і Джастін Тімберлейк. Головна роль могла також дістатися Сему Вортінгтон, Крісу Пайну і Джареду Лето.
• Сінестро (Марк Стронґ) могли зіграти Г'юґо Вівінґ, Джекі Ерл Гейлі і Джеффрі Раш.
• Бюджет - $200,000,000
MediaInfo

Код:

General
Unique ID                        : 244504065092931721719898269914530222606 (0xB7F1C521E92C9CF1980B7213A57A920E)
Complete name                    : D:\HURTOM\Green Lantern (2011) [Ukr, Eng] 720p [Hurtom].mkv
Format                           : Matroska
File size                        : 7.53 GiB
Duration                         : 1h 54mn
Overall bit rate                 : 9 455 Kbps
Movie name                       : Green Lantern (2011) [Ukr, Eng] 720p [Hurtom]
Encoded date                     : UTC 2011-10-19 06:08:49
Writing application              : mkvmerge v5.0.0 ('Die Wahre Liebe') built on Sep 25 2011 20:33:49
Writing library                  : libebml v1.2.2 + libmatroska v1.3.0

Video
ID                               : 1
Format                           : AVC
Format/Info                      : Advanced Video Codec
Format profile                   : [email protected]
Format settings, CABAC           : Yes
Format settings, ReFrames        : 12 frames
Codec ID                         : V_MPEG4/ISO/AVC
Duration                         : 1h 54mn
Bit rate                         : 7 500 Kbps
Width                            : 1 280 pixels
Height                           : 534 pixels
Display aspect ratio             : 2.35:1
Frame rate                       : 23.976 fps
Color space                      : YUV
Chroma subsampling               : 4:2:0
Bit depth                        : 8 bits
Scan type                        : Progressive
Bits/(Pixel*Frame)               : 0.458
Stream size                      : 5.82 GiB (77%)
Title                            : Green Lantern (2011) [Ukr, Eng] 720p [Hurtom]
Writing library                  : core 118 r2085 8a62835
Encoding settings                : cabac=1 / ref=12 / deblock=1:-3:-3 / analyse=0x3:0x113 / me=umh / subme=11 / psy=1 / psy_rd=1.00:0.00 / mixed_ref=1 / me_range=48 / chroma_me=1 / trellis=2 / 8x8dct=1 / cqm=0 / deadzone=21,11 / fast_pskip=0 / chroma_qp_offset=-2 / threads=12 / sliced_threads=0 / nr=0 / decimate=0 / interlaced=0 / bluray_compat=0 / constrained_intra=0 / bframes=9 / b_pyramid=2 / b_adapt=2 / b_bias=0 / direct=3 / weightb=1 / open_gop=0 / weightp=2 / keyint=250 / keyint_min=23 / scenecut=40 / intra_refresh=0 / rc_lookahead=60 / rc=2pass / mbtree=0 / bitrate=7500 / ratetol=1.0 / qcomp=0.70 / qpmin=0 / qpmax=69 / qpstep=4 / cplxblur=20.0 / qblur=0.5 / vbv_maxrate=50000 / vbv_bufsize=62500 / nal_hrd=none / ip_ratio=1.30 / pb_ratio=1.10 / aq=2:1.00
Language                         : English
Matrix coefficients              : BT.709-5, BT.1361, IEC 61966-2-4 709, SMPTE RP177

Audio #1
ID                               : 2
Format                           : AC-3
Format/Info                      : Audio Coding 3
Mode extension                   : CM (complete main)
Codec ID                         : A_AC3
Duration                         : 1h 54mn
Bit rate mode                    : Constant
Bit rate                         : 448 Kbps
Channel(s)                       : 6 channels
Channel positions                : Front: L C R, Side: L R, LFE
Sampling rate                    : 48.0 KHz
Bit depth                        : 16 bits
Compression mode                 : Lossy
Stream size                      : 365 MiB (5%)
Title                            : 5.1 @ 448 kbps - професійний дубльований Postmodern; Ліцензія Blu Ray
Language                         : Ukrainian

Audio #2
ID                               : 3
Format                           :
Format/Info                      : Digital Theater Systems
Codec ID                         : A_DTS
Duration                         : 1h 54mn
Bit rate mode                    : Constant
Bit rate                         : 1 510 Kbps
Channel(s)                       : 6 channels
Channel positions                : Front: L C R, Side: L R, LFE
Sampling rate                    : 48.0 KHz
Bit depth                        : 24 bits
Compression mode                 : Lossy
Stream size                      : 1.20 GiB (16%)
Title                            : 5.1 @ 1536 kbps
Language                         : English

Text #1
ID                               : 4
Format                           : UTF-8
Codec ID                         : S_TEXT/UTF8
Codec ID/Info                    : UTF-8 Plain Text
Title                            : Forced
Language                         : Ukrainian

Text #2
ID                               : 5
Format                           : UTF-8
Codec ID                         : S_TEXT/UTF8
Codec ID/Info                    : UTF-8 Plain Text
Language                         : English

Menu
00:00:00.000                     : :00:00:00.000
00:06:37.814                     : :00:06:37.814
00:16:36.078                     : :00:16:36.078
00:24:36.141                     : :00:24:36.141
00:33:13.909                     : :00:33:13.909
00:40:33.806                     : :00:40:33.806
00:48:23.818                     : :00:48:23.818
00:57:05.464                     : :00:57:05.464
01:04:24.527                     : :01:04:24.527
01:15:01.831                     : :01:15:01.831
01:23:11.486                     : :01:23:11.486
01:34:29.455                     : :01:34:29.455
01:42:22.762                     : :01:42:22.762
01:47:15.346                     : :01:47:15.346

Релізи та інформація про озвучення/дублювання

Ukr/Eng (2.18 GB) — професійний дубльований Postmodern ліцензія Blu-Ray

Переклад: Сергія Ковальчука
Режисер дубляжу: Катерина Брайковська
Звукорежисер: Олександр Мостовенко
Координатор проекту: Катерина Фуртас
Ролі дублювали: Раян Рейнольдс — Андрій Твердак, Блейк Лівлі/Керол Феріс — Юлія Перенчук, Володимир Терещук, оповідач — Юрій Гребельник, Марк Стронґ — Михайло Жонін, Паралакс — Олександр Ігнатуша, Тім Роббінс — Олег Лепенець, Павло Скороходько, Михайло Кришталь, Олександр Бондаренко, Олена Узлюк, Воррен Бертон — Анатолій Барчук, епізод — Роман Чупіс та інші.
Тривалість: 01:54:01
Якість: 720p (NiP)
Відео:
кодек:
розмір кадру: 1280х534
бітрейт: 7500 кб/с

Аудіо # 1:
мова: українська
переклад: професійний дубльований Postmodern | ліцензія Blu-Ray
кодек: 5.1
бітрейт: 448 кб/с

Аудіо # 2:
мова: англійська
переклад: ориґінал
кодек: 5.1
бітрейт: 1536 кб/с

Субтитри # 1:
мова: українська (форсовані, лише кілька речень)
тип: програмні (м'які)
формат: *.srt

Субтитри # 2:
мова: англійська
тип: програмні (м'які)
формат: *.srt

Скріншоти:




Джерело: & &

Особиста оцінка: 7


 Трекер:    Зареєстрований   

Завантажити / скачати фільм українською



відео для новачків



 Зареєстрований:   2011-10-19 08:20
 Розмір:   7.53 GB 
 Оцінка фільму:   8.4/10 (Голосів: 14)
   
Інші релізи
   Зелений ліхтар / Green Lantern (2011) 720p Zeus62  3 / 0   4.38 GB   2011-10-22 01:40 
   Зелений Ліхтар / Green Lantern (2011) AVC Ukr/Eng | Sub Eng AngryBirdsUA  2 / 0   2.28 GB   2011-10-20 17:41 
   Зелений Ліхтар / Green Lantern (2011) 1080-mini Anonymous  0 / 0   4.37 GB   2011-10-20 00:37 
   Зелений Ліхтар / Green Lantern (2011) DVD5 UKR/ENG | Sub Multi Zetonik-z  1 / 0   4.33 GB   2011-10-19 19:40 
   Зелений Ліхтар / Green Lantern (2011) Jatx_11  2 / 0   1.46 GB   2011-10-19 15:09 
   Зелений ліхтар / Green Lantern (2011) 1080p Ukr/Eng | Sub Eng Dim-ON  2 / 0   10.71 GB   2011-10-19 07:52 
   Зелений Ліхтар / Green Lantern (2011) Ukr/Eng antik_2008  5 / 0   2.18 GB   2011-10-19 04:02 
patriot2305 
Почесний гуртомівець


З нами з: 23.04.11
Востаннє: 08.12.16
Повідомлень: 4145

2011-10-19 09:38  
Золото буде?
jaral 
Відео Гуртом - підтримка та поширення
Відео Гуртом - підтримка та поширення


З нами з: 18.10.07
Востаннє: 18.11.16
Повідомлень: 304

2011-10-19 12:12  
patriot2305 написано:
Золото буде?
?
Віктор 
Відео Гуртом - субтитрування
Відео Гуртом - субтитрування


З нами з: 09.01.10
Востаннє: 09.12.16
Повідомлень: 8663

2011-10-19 13:17  
jaral написано:
?

Коли писалось, ще не було)

До речі, дубляж файний, якось треба буде ще разок зиркнути, лише заради нього.)

fred_911 
Новенький


З нами з: 04.05.10
Востаннє: 12.10.16
Повідомлень: 6

2011-11-05 23:08  
Цитата:
дубляж файний

Wink (2)

Ваш часовий пояс: GMT + 2 Години

Нова тема   Відповісти