Завантажити та скачати торренти українською


Людина з Місяця / Man on the Moon (1999) 720p Ukr/Eng | Sub Eng

Нові коментарі

Нова тема   Відповісти
Автор Повідомлення
DеLight 
Відео Гуртом - фільмокрай
Відео Гуртом - фільмокрай


З нами з: 24.08.11
Востаннє: 17.11.16
Повідомлень: 664

2011-10-18 15:22  
Людина з Місяця / Man on the Moon (1999) 720p Ukr/Eng | Sub Eng




Альтернативні постери







Жанр: біографія, драма, комедія
Країна: США, Німеччина, Японія, Велика Британія



рейтинг MPAA: R - Дітям до 17 років обов'язкова присутність батьків


Кіностудія / кінокомпанія: BBC Television Centre, Cinehaus, Jersey Films, Marubeni Corporation, Mutual Film Corporation, Shapiro/West Productions, Tele-München (TMG), Toho-Towa, Universal Pictures
Режисер: Мілош Форман / Milos Forman
Актори: Джим Керрі / Jim Carrey, Геррі Беккер / Gerry Becker, Грейсон Ерік Пендрі / Greyson Erik Pendry, Бріттані Колона / Brittany Colonna, Леслі Лайлес / Leslie Lyles, Боббі Борієлло / Bobby Boriello, Джордж Шапіро / George Shapiro, Денні ДеВіто / Danny DeVito, Бадд Фрідман / Budd Friedman, Том Дрісен / Tom Dreesen, Томас Армбрустер / Thomas Armbruster, Памела Абді / Pamela Abdy, Венді Полланд / Wendy Polland, Кеш Ошман / Cash Oshman, Метт Прайс / Matt Price

Сюжет:
Енді Кауфман не був звичайним коміком. Він був видатним, провокуючим, зухвалим, оригінальним - ці якості можна віднести і до привабливого біографічного фільму "Людина на місяці". Джим Керрі стає зіркою, вигравши "Золотий Глобус" за зловісну роль коміка, чиї знущальні виступи починалися з пародій на Елвіса, співця в "Майті Маус" і механіка Латки Граваса в серіалі "Таксі" і закінчувалися роллю що бажає догодити всім шоумена.

Двічі лауреат винагород Американської Кіноакадемії режисер Мілош Форман ("Пролітаючи над гніздом зозулі", "Амадей") поставив цю історію про коміка, що зробив кар'єру, тому що Енді порушував всі правила, змушуючи людей сміятися над тим, що не може бути смішним. Разом з Керрі у фільмі грають Кортні Лав, Пол Джіаматті і ще декілька чоловік, які працювали з реальним Кауфманом, включаючи Денні Де Вито - одного з продюсерів фільму.

Мілош Форман продовжив тему своїх останніх фільмів - зіткнення бунтівника зі стереотипами мислення суспільства. Фільм є зовсім не спекуляцією на скандальній темі, а серйозною спробою аналізу складної особистості. Саме це оцінили на Берлінському кінофестивалі, присудивши Форману приз за режисуру. Кіноакадемія ж проігнорувала картину, не відмітивши номінаціями ані режисерську майстерність, ані цікаву роботу Джима Керрі. Відсутність Керрі у списках номінантів другий рік поспіль викликало скандал, бо за свої останні ролі він отримав не лише добрі відгуки критиків, а й "Золоті глобуси" (у 1999 році - як кращий драматичний актор за "Шоу Трумена" Пітера Уіра, у 2000-му - як кращий комедійний). Напевно, той факт, що комік-суперзірка завоював популярність завдяки стрічкам, які, м’яко кажучи, не вирізнялись інтелектом, багатьом заважав об’єктивно оцінювати його серйозніші роботи.

Запросіть Енді додому. Він запудрить Вам мізки, але принесе Вам дійсне задоволення.



Тривалість: 01:58:36
Якість: 720p

Відео:
кодек:
розмір кадру: 1280 x 544
бітрейт: 3 704 кб/с

Аудіо # 1:
мова: українська
переклад: багатоголосий закадровий
кодек: 5.1
бітрейт: 384 кб/с
{Доріжка була перекодована під частоту кадрів відео}

Джерело озвучення:


Аудіо # 2:
мова: англійська
переклад: оригінал
кодек: 5.1
бітрейт: 384 кб/с

Субтитри:
мова: англійська
тип: програмні (м'які)
формат: *.srt


Трейлер і опис фільму на офіційному сайті телеканалу К1





->переглянути<-

General
Unique ID : 188683680067384071791677973090222716565 (0x8DF327AA88C2412E9D6FF9F4265BB695)
Complete name : D:\Torrents\Man on the Moon (1999) 720p [Ukr, Eng] [Hurtom & FireBit].mkv
Format : Matroska
File size : 3.78 GiB
Duration : 1h 58mn
Overall bit rate : 4 563 Kbps
Movie name : Man on the Moon (1999) 720p [Ukr, Eng] [Hurtom & FireBit] by Dony
Encoded date : UTC 2011-10-17 17:04:05
Writing application : mkvmerge v4.8.0 ('I Got The...') зібрано May 24 2011 03:12:58
Writing library : libebml v1.2.0 + libmatroska v1.1.0

Video
ID : 1
Format : AVC
Format/Info : Advanced Video Codec
Format profile : [email protected]
Format settings, CABAC : Yes
Format settings, ReFrames : 4 frames
Codec ID : V_MPEG4/ISO/AVC
Duration : 1h 58mn
Bit rate : 3 704 Kbps
Width : 1 280 pixels
Height : 544 pixels
Display aspect ratio : 2.35:1
Frame rate : 25.000 fps
Color space : YUV
Chroma subsampling : 4:2:0
Bit depth : 8 bits
Scan type : Progressive
Bits/(Pixel*Frame) : 0.213
Stream size : 3.07 GiB (81%)
Title : Man on the Moon (1999) 720p
Writing library : core 80 r1376 3feaec2
Encoding settings : cabac=1 / ref=2 / deblock=1:0:0 / analyse=0x3:0x113 / me=hex / subme=5 / psy=1 / psy_rd=0.0:0.0 / mixed_ref=1 / me_range=16 / chroma_me=1 / trellis=1 / 8x8dct=1 / cqm=0 / deadzone=21,11 / fast_pskip=1 / chroma_qp_offset=0 / threads=2 / sliced_threads=0 / nr=0 / decimate=1 / mbaff=0 / constrained_intra=0 / bframes=3 / b_pyramid=2 / b_adapt=1 / b_bias=0 / direct=1 / wpredb=1 / wpredp=2 / keyint=250 / keyint_min=25 / scenecut=40 / rc=cqp / mbtree=0 / qp=20 / ip_ratio=1.40 / pb_ratio=1.30 / aq=0
Language : English

Audio #1
ID : 2
Format : AC-3
Format/Info : Audio Coding 3
Mode extension : CM (complete main)
Codec ID : A_AC3
Duration : 1h 58mn
Bit rate mode : Constant
Bit rate : 384 Kbps
Channel(s) : 6 channels
Channel positions : Front: L C R, Side: L R, LFE
Sampling rate : 48.0 KHz
Bit depth : 16 bits
Compression mode : Lossy
Delay relative to video : 4s 0ms
Stream size : 326 MiB (8%)
Title : 5.1; 384 kbps; багатоголосий закадровий
Language : Ukrainian

Audio #2
ID : 3
Format : AC-3
Format/Info : Audio Coding 3
Mode extension : CM (complete main)
Codec ID : A_AC3
Duration : 1h 58mn
Bit rate mode : Constant
Bit rate : 384 Kbps
Channel(s) : 6 channels
Channel positions : Front: L C R, Side: L R, LFE
Sampling rate : 48.0 KHz
Bit depth : 16 bits
Compression mode : Lossy
Stream size : 326 MiB (8%)
Title : 5.1; 384 kbps; original
Language : English

Text
ID : 4
Format : UTF-8
Codec ID : S_TEXT/UTF8
Codec ID/Info : UTF-8 Plain Text
Language : English




->переглянути<-




















Джерело: &
Подяка MAKAPOHHIK за українську доріжку
Особиста оцінка: 10 - солідна стрічка


Срібний реліз (на рейтинг впливає 50% завантаженого)
 Трекер:    Зареєстрований   

Завантажити / скачати фільм українською



відео для новачків



 Зареєстрований:   2011-10-18 15:22
 Розмір:   3.78 GB 
 Оцінка фільму:   9.8/10 (Голосів: 18)
   
Інші релізи
   Людина з Місяця / Man on the Moon (1999) Ukr/Eng taraskill1  2 / 0   2.02 GB   2016-03-24 20:43 
Ваш часовий пояс: GMT + 2 Години

Нова тема   Відповісти