Завантажити та скачати торренти українською


ТіК (Т.І.К. / Тверезість і Культура) - Весільний (2011) [FLAC] | Folk-Rock / Pop-Punk / Ska

Нові коментарі

Нова тема   Відповісти
Автор Повідомлення
musicfan 
Модератор музики


З нами з: 27.01.09
Востаннє: 02.12.16
Повідомлень: 893

2011-10-18 07:41  
ТіК (Т.І.К. / Тверезість і Культура) - Весільний (2011) [FLAC] | Folk-Rock / Pop-Punk / Ska



Стиль: Folk-Rock, Pop-Punk, Ska
Країна, місто: Україна, Вінниця
Сайти: Офіційний сайт
Видавець: Moon records

Виконавці:
Вокал, акордеон - Віктор Бронюк
Гітара – Олександр Пінчук
Бас- гітара – Олексій Ліманець
Труба – Ян Нікітчук
Тромбон – Сергій Шамрай
Барабани – Владислав Хмарський (3, 4, 7, 8, 9, 10), Олександр Філінков (1, 2, 5, 6, 11)
Клавіші – Євген Зиков
Бек-вокал – Вікторія Газіна
Анна Вірник (10)
Спеціально запрошені гості – Ірина Білик (8)
Також брали участь
Євген Кобзарук програмування (3,4,7)
Костянтин Шелудько аранжування (5), програмування (5), акустична гітара (5)
Віталій Телезин програмування (1,2,11)
Гітарист Віктор Голяк (8)
Скрипаль Михайло Нодяк (8)
Jalsamino(12, 13, 14)
BaldBros (15)
Ансамбль Солістів Національного Симфонічного Оркестру України (5)
Пісні:
    01. Весела пісня
    02. Сірожине пірожине
    03. Памаранчеві сни
    04. Гуляй, народ!
    05. Для мами
    06. Чоловіче щастя
    07. Вінницька полька
    08. Не цілуй
    09. Вінницька полька
    10. Зелене листя
    11. Ще НВУ
    12. Свєта rmx
    13. Чоловіче щастя rmx
    14. Сірожине пірожине rmx
    15. Тиха rmx
В роздачі відсутнє бонусне відео!
log
Exact Audio Copy V1.0 beta 3 from 29. August 2011

Отчёт EAC об извлечении, выполненном 16. октября 2011, 20:45

ТІК / Весільний

Дисковод: TEAC CD-W552E Adapter: 0 ID: 0

Режим чтения : Достоверность
Использование точного потока : Да
Отключение кэша аудио : Да
Использование указателей C2 : Нет

Коррекция смещения при чтении : 6
Способность читать области Lead-in и Lead-out : Нет
Заполнение пропущенных сэмплов тишиной : Да
Удаление блоков с тишиной в начале и конце : Нет
При вычислениях CRC использовались нулевые сэмплы : Да
Интерфейс : Установленный внешний ASPI-интерфейс

Выходной формат : Пользовательский кодировщик
Выбранный битрейт : 1024 kBit/s
Качество : Высокий
Добавление ID3-тега : Нет
Утилита сжатия : C:\Program Files\Exact Audio Copy\Flac\flac.exe
Дополнительные параметры : -8 -V -T "ARTIST=%artist%" -T "TITLE=%title%" -T "ALBUM=%albumtitle%" -T "DATE=%year%" -T "TRACKNUMBER=%tracknr%" -T "GENRE=%genre%" -T "COMMENT=www.blues.at.ua" -T "URL=www.blues.at.ua" %source%

TOC извлечённого CD

Трек | Старт | Длительность | Начальный сектор | Конечный сектор
---------------------------------------------------------------------
1 | 0:00.00 | 2:51.58 | 0 | 12882
2 | 2:51.58 | 2:51.60 | 12883 | 25767
3 | 5:43.43 | 3:18.48 | 25768 | 40665
4 | 9:02.16 | 2:24.43 | 40666 | 51508
5 | 11:26.59 | 3:25.24 | 51509 | 66907
6 | 14:52.08 | 3:04.71 | 66908 | 80778
7 | 17:57.04 | 2:51.05 | 80779 | 93608
8 | 20:48.09 | 3:44.23 | 93609 | 110431
9 | 24:32.32 | 3:27.09 | 110432 | 125965
10 | 27:59.41 | 4:51.47 | 125966 | 147837
11 | 32:51.13 | 3:02.02 | 147838 | 161489
12 | 35:53.15 | 3:41.40 | 161490 | 178104
13 | 39:34.55 | 3:28.10 | 178105 | 193714
14 | 43:02.65 | 3:15.61 | 193715 | 208400
15 | 46:18.51 | 3:32.40 | 208401 | 224340
16 | 52:23.16 | 22:20.62 | 235741 | 336302

Характеристики диапазона извлечения и сообщения об ошибках

Выбранный диапазон

Имя файла C:\_ Uploads\ТІК 2011 - Весільний [flac]\ТІК - Весільний.wav

Пиковый уровень 99.2 %
Скорость извлечения 4.7 X
Качество диапазона 100.0 %
CRC копии B48A0AC0
Копирование... OK

Ошибок не произошло

Конец отчёта

---- CUETools DB Plugin V2.1.3

[CTDB TOCID: eTQnOCzaUiD7Ivr7vAb6EhalmcA-] disk not present in database, Submit result: eTQnOCzaUiD7Ivr7vAb6EhalmcA- has been uploaded
спектрограма
Тривалість: 00:49:51
Мова: українська
Аудіо-кодек: FLAC
Бітрейт: 1022 кб/с
Джерело: Інтернет

Додаткова інформація:
Весільний альбом гурту Тік. До нього увійшли вже такі відомі композиції, як «Для мами», «Сірожине пірожине», «Ще Не Вмерла Україна». Але, звісно, не обійшлось і без нових пісень. Серед них композиція «Не цілуй», яку Віктор Бронюк заспівав разом із Іриною Білик. Дует українських артистів народився завдяки їхньому знайомству на шоу «Зірка+Зірка». Віктор та Ірина на одному диханні записали пісню та відзняли кліп, який підкорив українські телеканали. Ірині Білик так сподобався результат спільної творчості із ТІКом, що вона виявила бажання виконати дует на концерті у Палаці спорту. І хто зна, на чиєму наступному весіллі будемо гуляти…




Якщо Ви справді бажаєте підтримати українське - після прослуховування, якщо музика вам сподобалась, придбайте ліцензійний диск. Підтримаймо вітчизняних виконавців!


Срібний реліз (на рейтинг впливає 50% завантаженого)
 Трекер:    Зареєстрований   

Завантажити / скачати українську музику



відео для новачків



 Зареєстрований:   2011-10-18 07:41
 Розмір:   365 MB 
 Оцінка музики:   10/10 (Голосів: 33)
   
Lev 
VIP


З нами з: 14.10.09
Востаннє: 28.11.16
Повідомлень: 1819

2011-10-18 14:56  
hohlovolkish
Vitality 
VIP


З нами з: 27.02.09
Востаннє: 23.10.15
Повідомлень: 331

2011-10-19 18:16  
Був на їхньому концерті у Тернополі, було надзвичайно класно!!! Але їхню творчість слухати сидячи неможливо, хочеться танцювати!!!Happy
Ваш часовий пояс: GMT + 2 Години

Нова тема   Відповісти