Завантажити та скачати торренти українською


Kings & Beggars - Irish Beggars (2011) [FLAC] | Folk

Нові коментарі

Нова тема   Відповісти
Останній раз роздавалося Myfordownloads (2016-10-09)
Автор Повідомлення
ingwar 
Модератор літератури


З нами з: 08.03.08
Востаннє: 10.12.16
Повідомлень: 1200

2011-10-14 17:44  
Kings & Beggars - Irish Beggars (2011) [FLAC] | Folk



Стиль: Folk Ethno
Країна, місто: Україна, Львів
Сайти: Офіційний сайт
Видавець: сам гурт
Виконавці:
Анна Васильченко - скрипка, вокал
Макс Кернер - гітара, бузукі, мандоліна, акордеон
Євген Гриневич - вістл, лоу-вістл, вокал
Валерій Волошок - бойран, вокал
Остап Сухоцький - перкусія
Пісні:
    1. Polkas Set I (Ballydesmond#2/#1/Kerry Polka)
    2. Cooley`s
    3. Kesh Jig
    4. Ev Sistr
    5. Eagles Wistle
    6. Sean Ryan's Polka
    7. Wild Rover
    8. McReggs Pipes Set
    9. All For Me Grog
    10. Polkas Set II (Sweeney`s/Dennis Murphy`s/Maggie in the Wood)
    11. Drunken Sailor
    12. Irlandeis
    13. Spotted Cow
    14. Whiskey In The Jar
    15. Katie Dear
    16. Polka (Galician Tune)
    17. Some Say The Devil Is Dead
    18. Polkas Set III (Little Diamond/Murroe/Maids of Ardath)
    19. Slip Jig
    20. Fields Of Athenry

Тривалість: 00:57:24
Мова: англійська, бретонська
Аудіо-кодек: FLAC
Бітрейт: 840 кб/с
Джерело: Власний ріп
Додаткова інформація:
Ансамбль Kings & Beggars був заснований у березні 2008 року у Львові. В репертуарі колективу як старовинна придворна, так і народна музика Європи, звідки і походить назва "Kings & Beggars" (королі та жебраки) – придворна музика, якою насолоджувались королі і знатні особи при дворі, а також весела народна музика і танці, що супроводжували свята і розваги простих людей.

Ансамбль активно приймає участь у різноманітних мистецьких заходах, концертах, фестивалях, турнірах і балах. Організовує також власні концерти і вечірки, як наприклад щорічний “День св. Патрика у Львові”, якому і присвячується цей диск!

17 березня - день святого Патрика - національне ірландське свято, що стало популярним у всьому світі. Вважається, що кожна людина цього дня може стати почесним ірландцем - якщо лише захоче. Цього дня влаштовується свято з піснями і танцями, пиво ллється рікою. 17 березня - свято не лише ірландського святого, але й ірландської душі. Воно переросло національні кордони і стало свого роду міжнародним днем Ірландії.

У це свято “напоями дня” є пиво та віскі. В день святого Патрика належить випити хоча би одну чарочку спиртного в якому-небудь ірландському барі: цього дня всі бари стають ірландськими, а всі музиканти - ірландцями!

В цей альбом входять традиційні ірландські пісні та танцювальні мелодії. Він створений спеціально до дня святого Патрика!
Log

Exact Audio Copy V1.0 beta 2 from 29. April 2011

EAC extraction logfile from 9. September 2011, 10:14

Kings & Beggars / Irish Beggars

Used drive : HL-DT-STDVDRAM GSA-T20L Adapter: 1 ID: 0

Read mode : Secure
Utilize accurate stream : Yes
Defeat audio cache : Yes
Make use of C2 pointers : Yes

Combined read/write offset correction : 0
Overread into Lead-In and Lead-Out : No
Fill up missing offset samples with silence : Yes
Delete leading and trailing silent blocks : No
Null samples used in CRC calculations : No
Used interface : Native Win32 interface for Win NT & 2000

Used output format : User Defined Encoder
Selected bitrate : 768 kBit/s
Quality : High
Add ID3 tag : No
Command line compressor : C:\Program Files\Exact Audio Copy\FLAC\FLAC.EXE
Additional command line options : -6 -V -T "ARTIST=%artist%" -T "TITLE=%title%" -T "ALBUM=%albumtitle%" -T "DATE=%year%" -T "TRACKNUMBER=%tracknr%" -T "GENRE=%genre%" -T "COMMENT=%comment%" -T "BAND=%albuminterpret%" -T "COMPOSER=%composer%" %haslyrics%--ta

TOC of the extracted CD

Track | Start | Length | Start sector | End sector
---------------------------------------------------------
1 | 0:00.00 | 2:49.62 | 0 | 12736
2 | 2:49.62 | 2:11.74 | 12737 | 22635
3 | 5:01.61 | 1:54.66 | 22636 | 31251
4 | 6:56.52 | 3:42.19 | 31252 | 47920
5 | 10:38.71 | 3:00.11 | 47921 | 61431
6 | 13:39.07 | 1:55.21 | 61432 | 70077
7 | 15:34.28 | 3:37.01 | 70078 | 86353
8 | 19:11.29 | 2:46.52 | 86354 | 98855
9 | 21:58.06 | 2:36.63 | 98856 | 110618
10 | 24:34.69 | 3:25.06 | 110619 | 125999
11 | 28:00.00 | 2:25.42 | 126000 | 136916
12 | 30:25.42 | 4:23.34 | 136917 | 156675
13 | 34:49.01 | 2:24.40 | 156676 | 167515
14 | 37:13.41 | 2:27.68 | 167516 | 178608
15 | 39:41.34 | 3:40.02 | 178609 | 195110
16 | 43:21.36 | 1:56.60 | 195111 | 203870
17 | 45:18.21 | 3:11.56 | 203871 | 218251
18 | 48:30.02 | 2:52.17 | 218252 | 231168
19 | 51:22.19 | 2:15.08 | 231169 | 241301
20 | 53:37.27 | 3:47.27 | 241302 | 258353

Range status and errors

Selected range

Filename C:\Users\IC\Music\Kings & Beggars - Irish Beggars\Kings & Beggars - Irish Beggars.wav

Peak level 99.5 %
Extraction speed 5.8 X
Range quality 100.0 %
Copy CRC 98C12B4C
Copy OK

No errors occurred

End of status report
Якщо Ви справді бажаєте підтримати українське - після прослуховування, якщо музика вам сподобалась, придбайте ліцензійний диск. Підтримаймо вітчизняних виконавців!


Срібний реліз (на рейтинг впливає 50% завантаженого)
 Трекер:    Зареєстрований   

Завантажити / скачати українську музику



відео для новачків



 Зареєстрований:   2011-10-14 17:44
 Розмір:   345 MB 
 Оцінка музики:   9.3/10 (Голосів: 8)
   
Skiff 
музика
музика


З нами з: 12.11.07
Востаннє: 09.12.16
Повідомлень: 3051

2011-10-14 18:45  
Прошу додати під спойлер вміст логу.
ingwar написано:
Мова: англійська

У емпетретьому релізі вказувалась ще одна мова.

kozak_nevada 
Свій


З нами з: 30.01.10
Востаннє: 02.12.16
Повідомлень: 63

2011-10-23 22:28  
Було би не зле, якби Королі і Жебраки запропонували українські версіїї ірландських пісень, як то роблять, наприклад, німці і поляки. Особливо потрібні українські шанти (пісні моряків).
Любителям сучасної ірландської традиції можна порекомендувати Dropkick Murphys (Celtic punk), The Dubliners, The Chieftains, The Evergreens, McKennitt, такі збірки, як Whiskey In The Jar (2CD 2006), Irish Drinking Songs (Vol. 1, 2001), Panpipe Irish Dreams (2007)

ssTAss 
Модератор музики


З нами з: 05.07.08
Востаннє: 10.12.16
Повідомлень: 10954

2011-11-14 03:19  
більша обкладинка

сканів зробити не можете?

slayer_bulia 
Новенький


З нами з: 29.11.10
Востаннє: 29.11.16
Повідомлень: 20

2012-06-17 18:33  
http://soundcloud.com/kings-4 нові пісні Kings & Beggars
hvvi 
Свій


З нами з: 25.02.10
Востаннє: 07.12.16
Повідомлень: 74

2012-07-14 08:47  
стане хто на роздачу?
Rosenbom 
Частий відвідувач


З нами з: 28.10.07
Востаннє: 10.12.16
Повідомлень: 40

2012-07-15 10:27  
Цитата:
стане хто на роздачу?

+100500

algol66 
Новенький


З нами з: 25.05.12
Востаннє: 10.12.16
Повідомлень: 10

2013-05-12 20:33  
Роздайте, якщо ваша ласка!
kingandbeggar 
Новенький


З нами з: 20.08.14
Востаннє: 24.08.14
Повідомлень: 1

2014-08-20 11:24  
Роздайте будь ласка!
Ваш часовий пояс: GMT + 2 Години

Нова тема   Відповісти