Завантажити та скачати торренти українською


Абсолютна влада / Цілковита влада / Absolute Power (1997) 720p 2xUkr/Eng | Sub Eng

Нові коментарі

Нова тема   Відповісти
Автор Повідомлення
Віктор 
Відео Гуртом - субтитрування
Відео Гуртом - субтитрування


З нами з: 09.01.10
Востаннє: 06.12.16
Повідомлень: 8663

2011-10-14 15:09  
Абсолютна влада / Цілковита влада / Absolute Power (1997) 720p 2xUkr/Eng | Sub Eng



«Corrupts Absolutely.»


Жанр: трилер, кримінал, драма
Країна: США



Кіностудія / кінокомпанія: Castle Rock Entertainment, Malpaso Productions
Режисер: Клінт Іствуд (Clint Eastwood)
Композитор: Ленні Найгаус (Lennie Niehaus)
Актори: Клінт Іствуд (Clint Eastwood), Джин Гекмен (Gene Hackman), Ед Гаріс (Ed Harris), Лора Лінні (Laura Linney), Скот Ґлен (Scott Glenn), Деніс Гайсберт (Dennis Haysbert), Джуді Дейвіс (Judy Davis), Е. Ґ. Маршал (E.G. Marshall), Мелора Гардін (Melora Hardin), Кенет Велш (Kenneth Welsh), Річард Дженкіс (Richard Jenkins), Марк Марґоліс (Mark Margolis), Елісон Іствуд (Alison Eastwood) та інші.

Сюжет:
Професійний злодій Лютер Вітні став випадковим свідком вбивства; і винен у цьому злочині, не хто інший як, - Президент Сполучених Штатів Америки! Вітні перетворюється на загнаного вовка, за яким полюють поліцейські, таємні аґенти і фахівці-оперативники з Білого Дому.
MediaInfo

Код:

General
Unique ID                        : 250146773387899017750955283069990629038 (0xBC3084217C7DB61BBC9ACD9299546EAE)
Complete name                    : D:\HURTOM\Absolute Power (1997) [2хUkr, Eng] 720p [Hurtom].mkv
Format                           : Matroska
File size                        : 5.64 GiB
Duration                         : 2h 1mn
Overall bit rate                 : 6 660 Kbps
Movie name                       : Absolute Power (1997) [2хUkr, Eng] 720p [Hurtom]
Encoded date                     : UTC 2011-10-14 08:12:15
Writing application              : mkvmerge v5.0.0 ('Die Wahre Liebe') built on Sep 25 2011 20:33:49
Writing library                  : libebml v1.2.2 + libmatroska v1.3.0

Video
ID                               : 1
Format                           : AVC
Format/Info                      : Advanced Video Codec
Format profile                   : [email protected]
Format settings, CABAC           : Yes
Format settings, ReFrames        : 12 frames
Codec ID                         : V_MPEG4/ISO/AVC
Duration                         : 2h 1mn
Bit rate                         : 4 249 Kbps
Width                            : 1 280 pixels
Height                           : 534 pixels
Display aspect ratio             : 2.35:1
Frame rate                       : 23.976 fps
Color space                      : YUV
Chroma subsampling               : 4:2:0
Bit depth                        : 8 bits
Scan type                        : Progressive
Bits/(Pixel*Frame)               : 0.259
Stream size                      : 3.60 GiB (64%)
Title                            : Absolute Power (1997) [2хUkr, Eng] 720p [Hurtom]
Writing library                  : core 98 r1649 20cbe10
Encoding settings                : cabac=1 / ref=12 / deblock=1:-3:-3 / analyse=0x3:0x133 / me=umh / subme=10 / psy=1 / psy_rd=1.00:0.00 / mixed_ref=1 / me_range=32 / chroma_me=1 / trellis=2 / 8x8dct=1 / cqm=0 / deadzone=21,11 / fast_pskip=0 / chroma_qp_offset=-2 / threads=6 / sliced_threads=0 / nr=0 / decimate=1 / interlaced=0 / constrained_intra=0 / bframes=8 / b_pyramid=2 / b_adapt=2 / b_bias=0 / direct=1 / weightb=1 / weightp=2 / keyint=250 / keyint_min=25 / scenecut=40 / intra_refresh=0 / rc_lookahead=40 / rc=crf / mbtree=0 / crf=17.0 / qcomp=0.60 / qpmin=10 / qpmax=51 / qpstep=4 / vbv_maxrate=50000 / vbv_bufsize=62500 / crf_max=0.0 / ip_ratio=1.40 / pb_ratio=1.30 / aq=1:0.90 / nal_hrd=none
Language                         : English

Audio #1
ID                               : 2
Format                           : AC-3
Format/Info                      : Audio Coding 3
Mode extension                   : CM (complete main)
Codec ID                         : A_AC3
Duration                         : 2h 1mn
Bit rate mode                    : Constant
Bit rate                         : 384 Kbps
Channel(s)                       : 6 channels
Channel positions                : Front: L C R, Side: L R, LFE
Sampling rate                    : 48.0 KHz
Bit depth                        : 16 bits
Compression mode                 : Lossy
Stream size                      : 333 MiB (6%)
Title                            : 5.1 @ 384 kbps - багатоголосий закадровий
Language                         : Ukrainian

Audio #2
ID                               : 3
Format                           : AC-3
Format/Info                      : Audio Coding 3
Mode extension                   : CM (complete main)
Codec ID                         : A_AC3
Duration                         : 2h 1mn
Bit rate mode                    : Constant
Bit rate                         : 384 Kbps
Channel(s)                       : 6 channels
Channel positions                : Front: L C R, Side: L R, LFE
Sampling rate                    : 48.0 KHz
Bit depth                        : 16 bits
Compression mode                 : Lossy
Stream size                      : 333 MiB (6%)
Title                            : 5.1 @ 384 kbps - багатоголосий закадровий
Language                         : Ukrainian

Audio #3
ID                               : 4
Format                           :
Format/Info                      : Digital Theater Systems
Codec ID                         : A_DTS
Duration                         : 2h 1mn
Bit rate mode                    : Constant
Bit rate                         : 1 510 Kbps
Channel(s)                       : 6 channels
Channel positions                : Front: L C R, Side: L R, LFE
Sampling rate                    : 48.0 KHz
Bit depth                        : 24 bits
Compression mode                 : Lossy
Stream size                      : 1.28 GiB (23%)
Title                            : 5.1 @ 1536 kbps
Language                         : English

Text
ID                               : 5
Format                           : UTF-8
Codec ID                         : S_TEXT/UTF8
Codec ID/Info                    : UTF-8 Plain Text
Language                         : English

Menu
00:00:00.000                     : en:00:00:00.000
00:03:43.265                     : en:00:03:43.265
00:08:17.080                     : en:00:08:17.080
00:12:19.364                     : en:00:12:19.364
00:15:39.856                     : en:00:15:39.856
00:19:20.034                     : en:00:19:20.034
00:21:08.017                     : en:00:21:08.017
00:23:48.886                     : en:00:23:48.886
00:27:02.913                     : en:00:27:02.913
00:32:51.845                     : en:00:32:51.845
00:35:58.907                     : en:00:35:58.907
00:39:37.584                     : en:00:39:37.584
00:43:06.751                     : en:00:43:06.751
00:47:29.513                     : en:00:47:29.513
00:49:59.622                     : en:00:49:59.622
00:53:21.156                     : en:00:53:21.156
00:54:57.753                     : en:00:54:57.753
00:56:36.268                     : en:00:56:36.268
01:01:52.918                     : en:01:01:52.918
01:05:26.047                     : en:01:05:26.047
01:08:05.707                     : en:01:08:05.707
01:13:52.970                     : en:01:13:52.970
01:16:45.142                     : en:01:16:45.142
01:22:17.391                     : en:01:22:17.391
01:25:35.839                     : en:01:25:35.839
01:31:43.540                     : en:01:31:43.540
01:36:09.555                     : en:01:36:09.555
01:37:51.365                     : en:01:37:51.365
01:40:42.912                     : en:01:40:42.912
01:45:08.969                     : en:01:45:08.969
01:47:23.646                     : en:01:47:23.646
01:50:07.351                     : en:01:50:07.351
01:53:09.282                     : en:01:53:09.282
01:55:19.121                     : en:01:55:19.121
01:57:06.019                     : en:01:57:06.019
Наявні релізи

720p 2xUkr/Eng | Sub Eng (5.64 GB) - багатоголосий закадровий запис звуку з К1 і багатоголосий закадровий запис звуку з ICTV
2xUkr/Eng (2.51 GB) - багатоголосий закадровий запис звуку з К1 і багатоголосий закадровий запис звуку з ICTV

Про озвучення записане з К1
Ролі озвучили: Клінт Іствуд - Владислав Пупков, Джин Гекмен -
Олег Лепенець, Скот Ґленн - Андрій Твердак
Про озвучення записане з ICTV
Ролі озвучили: Клінт Іствуд - Юрій Гребельник
Тривалість: 02:01:09
Якість: 720р CRiSC
Відео:
кодек:
розмір кадру: 1280x534
бітрейт: 4249 кб/с
частота кадрів: 23.976 fps

Аудіо # 1:
мова: українська
переклад: багатоголосий закадровий запис з К1
кодек: 5.1
бітрейт: 384 кб/с

Аудіо # 2:
мова: українська
переклад: багатоголосий закадровий запис з ICTV
кодек: 5.1
бітрейт: 384 кб/с

Аудіо # 3:
мова: анґлійська
переклад: ориґінал
кодек: 5.1
бітрейт: 1536 кб/с

Субтитри:
мова: анґлійська
тип: програмні (м'які)
формат: *.srt

Скріншоти:





За створення українських доріжок 5.1 подяка Romario_O
за наданий звук записаний з іств подяка urij546724


Джерело:
Особиста оцінка: 8


Срібний реліз (на рейтинг впливає 50% завантаженого)
 Трекер:    Зареєстрований   

Завантажити / скачати фільм українською



відео для новачків



 Зареєстрований:   2011-10-14 15:09
 Розмір:   5.64 GB 
 Оцінка фільму:   8.3/10 (Голосів: 10)
   
Ваш часовий пояс: GMT + 2 Години

Нова тема   Відповісти