Завантажити та скачати торренти українською


Джонні Д. / Public Enemies (2009) 720p Ukr/Eng | Sub Ukr/Eng | Звук Line

Нові коментарі

Нова тема   Відповісти
Автор Повідомлення
Віктор 
Відео Гуртом - субтитрування
Відео Гуртом - субтитрування


З нами з: 09.01.10
Востаннє: 05.12.16
Повідомлень: 8663

2011-10-10 12:54  
Джонні Д. / Public Enemies (2009) 720p Ukr/Eng | Sub Ukr/Eng




«America's Most Wanted»


Жанр: біографічний, кримінальний, драма, історичний, трилер
Країна: США



Кіностудія / кінокомпанія: Universal Pictures, Relativity Media, Forward Pass, Misher Films, Tribeca Productions, Appian Way
Режисер: Майкл Манн (Michael Mann)
Композитор: Елліот Голденталь (Elliot Goldenthal)
Актори: Джонні Деп (Johnny Depp), Маріон Котільяр (Marion Cotillard), Крістіан Бейл (Christian Bale), Девід Венгем (David Wenham), Джейсон Кларк (Jason Clarke), Стівен Дорф (Stephen Dorff), Чанінґ Татум (Channing Tatum), Джованні Рібізі (Giovanni Ribisi), Джеймс Руссо (James Russo), Біллі Крудап (Billy Crudup), Стівен Ленґ (Stephen Lang), Джон Ортіз (John Ortiz), Лілі Тейлор (Lili Taylor), Лілі Собескі (Leelee Sobieski), Бранка Катіч (Branka Katic) та інші.

Сюжет:
Довгоочікувана чергова стрічка відомого режисера Майкла Манна цього разу є біографічною, навіть більше - це біопік про чергового "поганого хлопця", який став легендою Америки. Мова йде про легендарного бандита Джона Діллінджера, який прославився нахабними пограбуваннями банків та цілою купою інших злочинів, та про його небезпечну гру з самим шефом ФБР Едґаром Гувером.
Цікаві факти

Цікаві факти про фільм


• Цей фільм - екранізація документального роману Браяна Барро «Вороги суспільства: Найбільша хвиля злочинності в Америці і народження ФБР».
• Планувалося, що головну роль зіграє Леонардо ДіКапріо.
• У фільмі Джонні Депп каже одному з відвідувачів банку: «Нам потрібні не ваші гроші, а тільки гроші банку». Таку саму фразу вимовляє герой Роберт Де Ніро в картині Манна «Сутичка».
• Зйомки фільму пройшли в семи містах штату Іллінойс, семи містах Вісконсіна, в одному з міст Індіани, а також у Маямі.
• У результаті страйку сценаристів режисер Майкл Манн зміг залучити до проекту Джонні Деппа і Маріон Котільяр, тому що проекти, в яких вони в той час знімалися, були відкладені. Джонні Депп готувався до зйомок у фільмі «Шантарам» (2011), режисер Міра Наїр, а Котільяр репетирувала роль в мюзиклі Роба Маршалла «Дев'ять» (2009).
• У стрічці майже на початку фільму гине Красунчик Флойда. Насправді Флойд був убитий уже після Джона Діллінджера.
• У картині під час перестрілки в «Маленькій Богемії» був убитий Нельсон, Ван Мітер та інші злочинці. Насправді ж ніхто зі злочинців убитий не був, був тільки поранений Піт Пірпойнт (який чомусь у фільмі в цей час сидів у в'язниці, що суперечить дійсності). «Маленька Богемія» залишилася однією з ганебних сторінок в історії ФБР: всі злочинці втекли, а агенти вбили ні в чому не винного місцевого жителя і поранили кількох, також був убитий один з агентів ФБР.
• Бюджет - $100,000,000
MediaInfo

Код:
General
Unique ID                        : 217047450953452343080788867340338182891 (0xA349D18A292DF096BAD682629F63BAEB)
Complete name                    : D:\HURTOM\Public Enemies (2009) [Ukr, Eng] 720p [Hurtom].mkv
Format                           : Matroska
File size                        : 8.45 GiB
Duration                         : 2h 20mn
Overall bit rate                 : 8 638 Kbps
Movie name                       : Public Enemies (2009) [Ukr, Eng] 720p [Hurtom]
Encoded date                     : UTC 2011-10-10 10:02:39
Writing application              : mkvmerge v5.0.0 ('Die Wahre Liebe') built on Sep 25 2011 20:33:49
Writing library                  : libebml v1.2.2 + libmatroska v1.3.0
Cover                            : Yes / Yes

Video
ID                               : 1
Format                           : AVC
Format/Info                      : Advanced Video Codec
Format profile                   : [email protected]
Format settings, CABAC           : Yes
Format settings, ReFrames        : 12 frames
Format settings, GOP             : M=1, N=2
Codec ID                         : V_MPEG4/ISO/AVC
Duration                         : 2h 20mn
Bit rate                         : 6 549 Kbps
Width                            : 1 280 pixels
Height                           : 534 pixels
Display aspect ratio             : 2.35:1
Frame rate                       : 23.976 fps
Color space                      : YUV
Chroma subsampling               : 4:2:0
Bit depth                        : 8 bits
Scan type                        : Progressive
Bits/(Pixel*Frame)               : 0.400
Stream size                      : 6.24 GiB (74%)
Title                            : Public Enemies (2009) [Ukr, Eng] 720p [Hurtom]
Writing library                  : core 78 r1301M bcba15d
Encoding settings                : cabac=1 / ref=12 / deblock=1:-3:-3 / analyse=0x3:0x113 / me=umh / subme=9 / psy=1 / psy_rd=0.8:0.0 / mixed_ref=1 / me_range=48 / chroma_me=1 / trellis=2 / 8x8dct=1 / cqm=0 / deadzone=21,11 / chroma_qp_offset=-2 / threads=6 / nr=0 / decimate=0 / mbaff=0 / constrained_intra=0 / bframes=6 / b_pyramid=0 / b_adapt=2 / b_bias=0 / direct=3 / wpredb=1 / keyint=250 / keyint_min=25 / scenecut=40 / rc_lookahead=40 / rc=2pass / mbtree=1 / bitrate=6549 / ratetol=1.0 / qcomp=0.60 / qpmin=10 / qpmax=51 / qpstep=4 / cplxblur=20.0 / qblur=0.5 / ip_ratio=1.40 / aq=1:0.80
Language                         : English

Audio #1
ID                               : 2
Format                           : AC-3
Format/Info                      : Audio Coding 3
Mode extension                   : CM (complete main)
Codec ID                         : A_AC3
Duration                         : 2h 20mn
Bit rate mode                    : Constant
Bit rate                         : 384 Kbps
Channel(s)                       : 6 channels
Channel positions                : Front: L C R, Side: L R, LFE
Sampling rate                    : 48.0 KHz
Bit depth                        : 16 bits
Compression mode                 : Lossy
Stream size                      : 385 MiB (4%)
Title                            : 5.1 384 kbps - професійний дубльований | LeDoyen Studio, звук Line
Language                         : Ukrainian

Audio #2
ID                               : 3
Format                           :
Format/Info                      : Digital Theater Systems
Codec ID                         : A_DTS
Duration                         : 2h 20mn
Bit rate mode                    : Constant
Bit rate                         : 1 510 Kbps
Channel(s)                       : 6 channels
Channel positions                : Front: L C R, Side: L R, LFE
Sampling rate                    : 48.0 KHz
Bit depth                        : 24 bits
Compression mode                 : Lossy
Stream size                      : 1.48 GiB (17%)
Title                            : 5.1 1536 kbps
Language                         : English

Audio #3
ID                               : 4
Format                           : AC-3
Format/Info                      : Audio Coding 3
Format profile                   : Dolby Digital
Mode extension                   : CM (complete main)
Codec ID                         : A_AC3
Duration                         : 2h 20mn
Bit rate mode                    : Constant
Bit rate                         : 192 Kbps
Channel(s)                       : 2 channels
Channel positions                : Front: L R
Sampling rate                    : 48.0 KHz
Bit depth                        : 16 bits
Compression mode                 : Lossy
Stream size                      : 192 MiB (2%)
Title                            : 2.0 192 kbps - Commentary by Director Michael Mann
Language                         : English

Text #1
ID                               : 5
Format                           : UTF-8
Codec ID                         : S_TEXT/UTF8
Codec ID/Info                    : UTF-8 Plain Text
Language                         : Ukrainian

Text #2
ID                               : 6
Format                           : UTF-8
Codec ID                         : S_TEXT/UTF8
Codec ID/Info                    : UTF-8 Plain Text
Language                         : English

Menu
00:00:00.000                     : en:00:00:00.000
00:07:19.606                     : en:00:07:19.606
00:12:50.269                     : en:00:12:50.269
00:20:19.093                     : en:00:20:19.093
00:25:53.469                     : en:00:25:53.469
00:31:33.850                     : en:00:31:33.850
00:36:44.160                     : en:00:36:44.160
00:42:13.489                     : en:00:42:13.489
00:47:59.543                     : en:00:47:59.543
00:53:26.662                     : en:00:53:26.662
01:00:53.942                     : en:01:00:53.942
01:08:29.522                     : en:01:08:29.522
01:15:34.655                     : en:01:15:34.655
01:21:56.912                     : en:01:21:56.912
01:34:00.677                     : en:01:34:00.677
01:41:05.893                     : en:01:41:05.893
01:48:24.998                     : en:01:48:24.998
01:53:27.342                     : en:01:53:27.342
01:58:43.491                     : en:01:58:43.491
02:11:36.889                     : en:02:11:36.889
Всі наявні релізи

Завантажити:
1080p Ukr/Eng | Sub Eng (12.52 GB) - професійний дубльований LeDoyen Studio (Звук Line)
720p (6.69 GB) - професійний дубльований LeDoyen Studio (Звук Line)
(1.99 GB) - професійний дубльований LeDoyen Studio (Звук Line)
(1.99 GB) - професійний дубльований LeDoyen Studio (Звук Line)

Фільм надано компанією Universal Pictures International (UPI) дубльовано LeDoyen Studio на замовлення компанії B&H Film Distribution
Автор синхронного тексту і режисер дубляжу: Олекса Негребецький
Звукорежисер: Марія Нестеренко
Асистент режисера дубляжу: Ольга Боєва
Координатор проекту: Мирослава Сидорук
Ролі дублювали: Джонні Депп - Андрій Самінін, Володимир Кокотунов, Маріон Котільярд - Ірма Вітовська, Анатолій Зіновенко, Джейсон Кларк/Рудий - Олег Лепенець, Джеффрі Конатр/Генрі Сюйдам - Михайло Жонін, Девід Венгем - Назар Задніпровський, Іван Марченко, Володимир Терещук, Джовані Рібізі/Елвін - Андрій Твердак, Бранка Катіч/Анна - Лариса Руснак, Другорядні ролі - Дмитро Завадський, написи - Олександр Ігнатуша
Тривалість: 02:20:03
Якість: 720p (CtrlHD)
Відео:
кодек:
розмір кадру: 1280x534 (2.35:1)
бітрейт: 6549 кб/с

Аудіо # 1:
мова: українська
переклад: професійний дубльований | звук Line
кодек: 5.1
бітрейт: 384 кб/с

Переклад виконано і озвучено:
LeDoyen Studio

Аудіо # 2:
мова: англійська
переклад: оригінал
кодек: DTC 5.1
бітрейт: 1536 кб/с

Аудіо # 3:
мова: англійська (коментарі)
кодек: 2.0
бітрейт: 192 кб/с

Субтитри# 1:
мова: українська
тип: програмні (м'які)
формат: *.srt, редагування: w2958l

Субтитри# 2:
мова: англійська
тип: програмні (м'які)
формат: *.srt

Скріншоти :








За запис звуку Line подяка Skiff-y,
за створення доріжки 5.1 подяка Lan-y


Джерело:
Особиста оцінка: 10


 Трекер:    Зареєстрований   

Завантажити / скачати фільм українською



відео для новачків



 Зареєстрований:   2011-10-10 14:05
 Розмір:   8.45 GB 
 Оцінка фільму:   9.5/10 (Голосів: 18)
   
Інші релізи
   Джонні Д. / Public Enemies (2009) 2xUkr patriot2305  2 / 1   1.64 GB   2013-08-06 20:10 
   Джонні Д. / Public Enemies (2009) 2xUkr/Eng | Sub Ukr/Eng Givi  5 / 0   3.35 GB   2013-04-30 19:36 
   Вороги суспільства / Джонні Д. / Public Enemies (2009) antik_2008  0 / 1   1.99 GB   2009-11-09 03:44 
   Джонні Д. / Public Enemies (2009) 1080p Ukr/Eng | Sub Eng | Line SainTManiac  2 / 0   12.52 GB   2009-10-22 06:49 
Віктор 
Відео Гуртом - субтитрування
Відео Гуртом - субтитрування


З нами з: 09.01.10
Востаннє: 05.12.16
Повідомлень: 8663

2011-10-11 23:22  
Доріжка на сервері, субтитри також.
Ваш часовий пояс: GMT + 2 Години

Нова тема   Відповісти