Завантажити та скачати торренти українською


Шостий день / The 6th Day (2000) 720p 2xUkr/Eng | Sub Eng

Нові коментарі

Нова тема   Відповісти
Автор Повідомлення
Віктор 
Відео Гуртом - субтитрування
Відео Гуртом - субтитрування


З нами з: 09.01.10
Востаннє: 07.12.16
Повідомлень: 8663

2011-10-09 14:19  
Шостий день / The 6th Day (2000) 720p 2xUkr/Eng | Sub Eng



«You've cloned the wrong man»


Жанр: трилер, бойовик, фантастика
Країна: Канада, США



Кіностудія / кінокомпанія: Phoenix Pictures
Режисер: Роджер Споттiсвуд (Roger Spottiswoode)
Композитор: Тревор Рабін (Trevor Rabin)
Актори: Арнольд Шварценеґер (Arnold Schwarzenegger), Тонi Ґолдвін (Tony Goldwyn), Майкл Рапапорт (Michael Rapaport), Майкл Рукер (Michael Rooker), Сара Вiнтер (Sarah Wynter), Род Роуленд (Rodney Rowland), Роберт Дюваль (Robert Duvall) та інші.

Сюжет:
Дія стрічки відбувається у недалекому майбутньому, коли клонування живих істот набуло особливого розмаху. Пiлот Адам Ґiбсон, випадково зустрівшись зі своїм двійником, стає небезпечним для злочинців, котрі займаються забороненими біологічними експериментами...
Номінації, цікаві факти

Золота малина, 2001 рік
Номінації (3):
Найгірша чоловіча роль (Арнольд Шварценеґер)
Найгірша чоловіча роль другого плану (Арнольд Шварценеґер)
Найгірша екранна пара - «Арнольд Шварценеґер і клонований Арнольд Шварценеґер»

Цікаві факти про фільм

• Творці були змушені змінити написання назви фільму з «Шостого дня» (англ.The Sixth Day) На «6-й день» (англ. The 6th Day) Щоб глядачі не плутали його з фільмом який вийшов трохи раніше «Шосте почуття» (англ . Sixth Sense).
• Свою коронну фразу «Я повернуся» (англ. I'll be back) з фільму «Термінатор» у дещо модифікованому вигляді Арнольд Шварценеґер вимовляє, ідучи з магазину клонованих домашніх тварин. Він каже, звертаючись до продавця: «Я, можливо повернуся» (англ. I might be back), на що продавець упевнено відповідає «Ти повернешся».
• Значна частина фільму знімалася в Канаді, в Бернабо, Ванкувері, Торонто і Річмонді.
• Бюджет - $82,000,000
MediaInfo

Код:

General
Unique ID                        : 181697476210281716961970723161809067294 (0x88B1A938F430010E81736849A1C39D1E)
Format                           : Matroska
File size                        : 7.34 GiB
Duration                         : 2h 3mn
Overall bit rate                 : 8 499 Kbps
Encoded date                     : UTC 2011-10-09 10:09:07
Writing application              : mkvmerge v5.0.0 ('Die Wahre Liebe') built on Sep 25 2011 20:33:49
Writing library                  : libebml v1.2.2 + libmatroska v1.3.0

Video
ID                               : 1
Format                           : AVC
Format/Info                      : Advanced Video Codec
Format profile                   : [email protected]
Format settings, CABAC           : Yes
Format settings, ReFrames        : 11 frames
Codec ID                         : V_MPEG4/ISO/AVC
Duration                         : 2h 3mn
Bit rate                         : 5 988 Kbps
Width                            : 1 280 pixels
Height                           : 532 pixels
Display aspect ratio             : 2.40:1
Frame rate                       : 23.976 fps
Color space                      : YUV
Chroma subsampling               : 4:2:0
Bit depth                        : 8 bits
Scan type                        : Progressive
Bits/(Pixel*Frame)               : 0.367
Stream size                      : 5.17 GiB (70%)
Writing library                  : core 114 r1913 5fd3dce
Encoding settings                : cabac=1 / ref=11 / deblock=1:-2:-2 / analyse=0x3:0x113 / me=umh / subme=10 / psy=1 / psy_rd=0.90:0.10 / mixed_ref=1 / me_range=32 / chroma_me=1 / trellis=2 / 8x8dct=1 / cqm=0 / deadzone=21,11 / fast_pskip=0 / chroma_qp_offset=-3 / threads=9 / sliced_threads=0 / nr=0 / decimate=1 / interlaced=0 / constrained_intra=0 / bframes=16 / b_pyramid=2 / b_adapt=2 / b_bias=0 / direct=1 / weightb=1 / open_gop=0 / weightp=2 / keyint=250 / keyint_min=23 / scenecut=40 / intra_refresh=0 / rc_lookahead=40 / rc=crf / mbtree=0 / crf=18.0 / qcomp=0.70 / qpmin=10 / qpmax=51 / qpstep=4 / vbv_maxrate=50000 / vbv_bufsize=62500 / crf_max=0.0 / nal_hrd=none / ip_ratio=1.40 / pb_ratio=1.30 / aq=2:0.90
Language                         : English

Audio #1
ID                               : 2
Format                           : AC-3
Format/Info                      : Audio Coding 3
Mode extension                   : CM (complete main)
Codec ID                         : A_AC3
Duration                         : 2h 3mn
Bit rate mode                    : Constant
Bit rate                         : 384 Kbps
Channel(s)                       : 6 channels
Channel positions                : Front: L C R, Side: L R, LFE
Sampling rate                    : 48.0 KHz
Bit depth                        : 16 bits
Compression mode                 : Lossy
Stream size                      : 339 MiB (5%)
Title                            : 5.1 384 Kbps - двоголосий закадровий | Студія 1+1
Language                         : Ukrainian

Audio #2
ID                               : 3
Format                           : AC-3
Format/Info                      : Audio Coding 3
Mode extension                   : CM (complete main)
Codec ID                         : A_AC3
Duration                         : 2h 3mn
Bit rate mode                    : Constant
Bit rate                         : 448 Kbps
Channel(s)                       : 6 channels
Channel positions                : Front: L C R, Side: L R, LFE
Sampling rate                    : 48.0 KHz
Bit depth                        : 16 bits
Compression mode                 : Lossy
Stream size                      : 396 MiB (5%)
Title                            : 5.1 448 Kbps - багатоголосий закадровий
Language                         : Ukrainian

Audio #3
ID                               : 4
Format                           :
Format/Info                      : Digital Theater Systems
Codec ID                         : A_DTS
Duration                         : 2h 3mn
Bit rate mode                    : Constant
Bit rate                         : 1 510 Kbps
Channel(s)                       : 6 channels
Channel positions                : Front: L C R, Side: L R, LFE
Sampling rate                    : 48.0 KHz
Bit depth                        : 16 bits
Compression mode                 : Lossy
Delay relative to video          : 11ms
Stream size                      : 1.30 GiB (18%)
Title                            : 5.1 1536 kbps
Language                         : English

Text
ID                               : 5
Format                           : UTF-8
Codec ID                         : S_TEXT/UTF8
Codec ID/Info                    : UTF-8 Plain Text
Language                         : English

Menu
00:00:00.000                     : en:Start
00:08:25.755                     : en:Adam Gibson
00:15:00.107                     : en:Double X Charter
00:18:35.656                     : en:"Let's Test the Remote"
00:23:12.724                     : en:Blood & Vision Test
00:31:23.214                     : en:Repet
00:38:44.405                     : en:Adam's Sim-Pal
00:45:13.085                     : en:6Th Day Violation
00:54:19.839                     : en:Cadillac Chase
00:58:22.874                     : en:Dr. Griffin Weir
01:10:09.288                     : en:Seventh Precinct
01:15:44.873                     : en:Assassins Recloned
01:24:10.754                     : en:Cell Break
01:33:41.490                     : en:Virtual Girlfriend
01:41:33.378                     : en:Attempted Suicide
01:49:20.679                     : en:Tripp the Clone Killer
Релізи та інформація про озвучення/дублювання

720p 2xUkr/Eng | Sub Eng (7.24 GB) — двоголосий закадровий Студія «1+1» і багатоголосий закадровий запис з ICTV (+ по НТН)
2xUkr/Eng (2.51 GB) — багатоголосий закадровий запис з ICTV і двоголосий закадровий Cтудія «1+1»

Про озвучення від Cтудії «1+1»
Ролі озвучили: Георгій Гавриленко і Ніна Касторф

Про озвучення записане з ICTV
Ролі озвучили: Арнольд Шварценеґер — Юрій Гребельник, Анатолій Пашнін, Дмитро Терещук і один жіночий
Тривалість: 02:03:34
Якість: 720р
Відео:
кодек:
розмір кадру: 1280х532
бітрейт: 5988 кб/с

Аудіо # 1:
мова: українська
переклад: двоголосий закадровий Студія «1+1» | Ролі озвучили: Георгій Гавриленко і Ніна Касторф
кодек: 5.1
бітрейт: 384 кб/с

Аудіо # 2:
мова: українська
переклад: багатоголосий закадровий запис з ICTV
кодек: 5.1
бітрейт: 448 кб/с

Аудіо # 3:
мова: англійська
переклад: ориґінал
кодек: 5.1
бітрейт: 1536 кб/с

Субтитри:
мова: англійська
тип: програмні (м'які)
формат: *.srt

Скріншоти:





Подяки:
За створення доріжок 5.1 robotron005,
за надані сирі доріжки записані з ICTV панам ua2004, Merdiff, weber,
за надані сирі доріжки від "1+1" пані olgaya і пану karvai0


Джерело:

Особиста оцінка: 8


Срібний реліз (на рейтинг впливає 50% завантаженого)
 Трекер:    Зареєстрований   

Завантажити / скачати фільм українською



відео для новачків



 Зареєстрований:   2011-10-09 14:19
 Розмір:   7.34 GB 
 Оцінка фільму:   8.9/10 (Голосів: 8)
   
Інші релізи
imonko 
Відео Гуртом - фільмокрай
Відео Гуртом - фільмокрай


З нами з: 20.07.08
Востаннє: 31.10.16
Повідомлень: 7309

2011-12-12 13:22  
w2958l написано:

Аудіо # 2:

мова: українська

переклад: двоголосий закадровий запис звуку з ICTV

багатоголосий, є ж ще і жіночий голос

Віктор 
Відео Гуртом - субтитрування
Відео Гуртом - субтитрування


З нами з: 09.01.10
Востаннє: 07.12.16
Повідомлень: 8663

2011-12-12 13:32  
imonko написано:
багатоголосий, є ж ще і жіночий голос

Головне, що в тегах написано багатоголосий.) Дякую, зараз підправлю.

Ваш часовий пояс: GMT + 2 Години

Нова тема   Відповісти