Завантажити та скачати торренти українською


Віктор Морозов, Четвертий Кут - Армія світла (2008) [FLAC] | Poetic Rock

Нові коментарі

Нова тема   Відповісти
Автор Повідомлення
ssTAss 
Модератор музики


З нами з: 05.07.08
Востаннє: 06.12.16
Повідомлень: 10946

2011-10-07 12:27  
Віктор Морозов, Четвертий Кут - Армія світла (2008) [FLAC] | Poetic Rock



Стиль: Poetic Rock
Країна, місто: Україна, Львів
Сайти: Офіційний сайт
Видавець: UKRmusic
Виконавці:
Віктор Морозов - голос, гітара

гурт "Четвертий кут":
- Олег Ярема - гітара
- Олег "Джон" Сук - бас-гітара
- Андрій П'ятаков - барабани (перкусія)

Музика та слова - Кость Москалець
Пісні:
    01 - Армія світла
    02 - Дощ
    03 - Маки
    04 - Матриця
    05 - Останній воїн
    06 - Алілуя
    07 - Приїхали з-за Дунаю
    08 - От уже й зима
    09 - Не тікай
    10 - Зірка ясна
    11 - Уже весна
    12 - Наливайко
    13 - Дубе, дубе зелений
log
Exact Audio Copy V0.99 prebeta 4 from 23. January 2008

Звіт EAC про видобування, котре виконане 19. січня 2009, 18:03

Віктор Морозов / Армія світла

Дисковод: Optiarc DVD RW AD-7170A Adapter: 2 ID: 0

Режим читання : Точний
Використати точний потік : Так
Вимкнути аудіо кеш : Ні
Застосувати мітки C2 : Ні

Комбіноване зміщення читання/запису : 0
Екстрачитання областей Lead-in і Lead-out : Ні
Заповнення пропущених семплів тишею : Так
Видалення блоків з тишею на початку і кінці : Ні
При вирахуванні CRC використовувались нульові семпли : Ні
Використаний інтерфейс : 'Рідний' Win32-інтерфейс для Win NT/2000

Застосований вихідний формат : Внутрішні WAV-операції
Формат семпла : 44.100 Гц; 16 біт; стерео

TOC видобутого CD

Трек | Старт | Довжина | Початковий сектор | Кінцевий сектор
------------------------------------------------------------------
1 | 0:00.00 | 3:37.70 | 0 | 16344
2 | 3:37.70 | 4:35.31 | 16345 | 37000
3 | 8:13.26 | 3:37.49 | 37001 | 53324
4 | 11:51.00 | 3:16.34 | 53325 | 68058
5 | 15:07.34 | 3:42.73 | 68059 | 84781
6 | 18:50.32 | 3:39.63 | 84782 | 101269
7 | 22:30.20 | 3:49.38 | 101270 | 118482
8 | 26:19.58 | 4:57.02 | 118483 | 140759
9 | 31:16.60 | 3:48.74 | 140760 | 157933
10 | 35:05.59 | 4:45.11 | 157934 | 179319
11 | 39:50.70 | 2:32.07 | 179320 | 190726
12 | 42:23.02 | 1:46.43 | 190727 | 198719
13 | 44:09.45 | 3:39.25 | 198720 | 215169

Статус діапазону і помилки

Обраний діапазон

Ім'я файлу C:\Users\...\Music\Віктор Морозов - Армія світла.wav

Піковий рівень 100.0 %
Якість діапазону 97.8 %
CRC копії B2412A91
Копіювання... OK

Помилки не траплялися

Кінець звіту
fooCDtect
fooCDtect - foobar2000 + auCDtect, baralgin.

auCDtect: CD records authenticity detector, version 0.8.2
Copyright (c) 2004 Oleg Berngardt. All rights reserved.
Copyright (c) 2004 Alexander Djourik. All rights reserved.

mode: 0

=======================================================
Track: 01 - Армія світла
Quality: CDDA, 100%
=======================================================
Track: 02 - Дощ
Quality: CDDA, 100%
=======================================================
Track: 03 - Маки
Quality: CDDA, 100%
=======================================================
Track: 04 - Матриця
Quality: CDDA, 100%
=======================================================
Track: 05 - Останній воїн
Quality: CDDA, 100%
=======================================================
Track: 06 - Алілуя
Quality: CDDA, 100%
=======================================================
Track: 07 - Приїхали з-за Дунаю
Quality: CDDA, 100%
=======================================================
Track: 08 - От уже й зима
Quality: MPEG, 95%
=======================================================
Track: 09 - Не тікай
Quality: CDDA, 100%
=======================================================
Track: 10 - Зірка ясна
Quality: CDDA, 99%
=======================================================
Track: 11 - Уже весна
Quality: CDDA, 100%
=======================================================
Track: 12 - Наливайко
Quality: CDDA, 100%
=======================================================
Track: 13 - Дубе, дубе зелений
Quality: CDDA, 100%
=======================================================
Тривалість: 00:47:49
Мова: українська
Аудіо-кодек: FLAC
Бітрейт: 931 кб/с
Джерело: torrent.net.ua (присутні скани)
Додаткова інформація:
Cпочатку була велика спокуса порівняти цей альбом з попереднім – "Треба встати і вийти". Та розумію вже, що порівнювати не варто. Бо, хоча основні дійові особи ті ж самі, але все решта – інше. Передовсім – дещо іншими є теми для роздумів. Лірика Костя Москальця дивним чином настільки гармонійно переплітає і поєднує ознаки різних часів, що саме поняття часу стає не таким важливим. Зрештою, залишається лише один час – теперішній. Завжди і всюди – тільки зараз. Наприклад, альбом наводить знов на думку, що війна за незалежність України, розпочата кількадесят років тому – триває й досі. І тепер більше, ніж будь-коли раніше, вона є протистоянням свідомостей – бо незалежність зовнішня, політико-географічна, нічого не варта, якщо не тримається на свободі внутрішній. Якщо цитувати пісню, то – "...бути собою і бути гордим". Якщо говорити – мовою новин – про "інтеграцію України до світової спільноти", то... Україна може стати рівноправним членом цієї спільноти лише за умови, що остаточно усвідомить себе – собою. Для того, аби бути рівним у правах, потрібно вносити до спільної палітри щось істотно своє, особливе. Українське. Бо той, хто входить до кімнати на правах васала, оповитий чиєюсь тінню, не має власного імені – а лише ім’я свого сюзерена. Так думаю, слухаючи ці пісні.
Втім, звичайно, тут йдеться не лише про це. Адже всі справжні вірші, вся справжня музика на світі завжди – про любов. Бо тільки вона здатна насправді скасовувати час і робити крок вперед і вверх – інших крил у нас немає...

Антон Йожик Лейба


Якщо Ви справді бажаєте підтримати українське - після прослуховування, якщо музика вам сподобалась,
придбайте ліцензійний диск.
Підтримаймо вітчизняних виконавців!


Срібний реліз (на рейтинг впливає 50% завантаженого)
 Трекер:    Зареєстрований   

Завантажити / скачати українську музику



відео для новачків



 Зареєстрований:   2011-10-07 12:27
 Розмір:   382 MB 
 Оцінка музики:   6.9/10 (Голосів: 9)
   
Ваш часовий пояс: GMT + 2 Години

Нова тема   Відповісти