Завантажити та скачати торренти українською


Родинний гурт "Петровичі" - Вітер з гір (2007) [FLAC] | Ethno / Folk

Нові коментарі

Нова тема   Відповісти
Останній раз роздавалося 777-toxa (2015-07-28)
Автор Повідомлення
fv007 
VIP


З нами з: 01.01.10
Востаннє: 10.12.16
Повідомлень: 449

2011-10-05 19:31  
Родинний гурт "Петровичі" - Вітер з гір (2007) [FLAC] | Ethno / Folk



Стиль: Ethno / Folk
Країна, місто: Україна, смт. Ворохта (Івано-Франківська область)
Видавець: UKRmusic
Виконавці:
Василь Сказків - сопілка, вокал
Петро Сказків - цимбали, вокал
Юрій Сказків - бубен, вокал
Ірина Вурсуляк - скрипка, вокал
Петро Вурсуляк - бас-гітара, вокал

Володимир Левицький - звукорежисер
Пісні:
    1. Гуцулка повільна (музика народна)
    2. Чуєш, брате мій (музика Якова Степового, слова Богдана Лепкого)
    3. Полонина (музика та слова народні)
    4. Гуцульська телинка (музика "Петровичі")
    5. Аркан (чоловічий гуцульський танець)
    6. Сум (слова Івана Франка, музика "Петровичі")
    7. В горах грім гуде (повстанська народна пісня)
    8. Гуцулка Ксеня (музика та слова народні)
    9. Пісня без слів (музика "Петровичі")
    10. Гуцулка швидка (музика народна)
    11. Чи то буря, чи то грім (повстанська народна пісня)
    12. Запорізький марш (музика Євгена Адамцевича)

Тривалість: 00:41:12
Мова: українська
Аудіо-кодек: FLAC
Бітрейт: 822 кб/с
Джерело: CD
log
Exact Audio Copy V0.99 prebeta 3 from 28. July 2007

Отчёт EAC об извлечении, выполненном 5. октября 2011, 19:36

Родинний гурт "Петровичі" / Вітер з гір

Дисковод: HL-DT-STDVDRAM GSA-4167B Adapter: 0 ID: 1

Режим чтения : Достоверность
Использование точного потока : Да
Отключение кэша аудио : Да
Использование указателей C2 : Нет

Комбинированное смещение чтения/записи : 0
Способность читать области Lead-in и Lead-out : Нет
Заполнение пропущенных сэмплов тишиной : Да
Удаление блоков с тишиной в начале и конце : Нет
При вычислениях CRC использовались нулевые сэмплы : Да
Интерфейс : Встроенный Win32-интерфейс для Win NT/2000

Выходной формат : Пользовательский кодировщик
Выбранный битрейт : 768 kBit/s
Качество : Высокий
Добавление ID3-тэга : Нет
Утилита сжатия : C:\Program Files\Exact Audio Copy\FLAC\FLAC.EXE
Дополнительные параметры : -8 -V -T "ARTIST=%a" -T "TITLE=%t" -T "ALBUM=%g" -T "DATE=%y" -T "TRACKNUMBER=%n" -T "GENRE=%m" -T "COMMENT=%e" %s -o %d

TOC извлечённого CD

Трек | Старт | Длительность | Начальный сектор | Конечный сектор
---------------------------------------------------------------------
1 | 0:00.00 | 3:55.68 | 0 | 17692
2 | 3:55.68 | 2:06.72 | 17693 | 27214
3 | 6:02.65 | 5:24.57 | 27215 | 51571
4 | 11:27.47 | 2:37.34 | 51572 | 63380
5 | 14:05.06 | 3:40.01 | 63381 | 79881
6 | 17:45.07 | 4:44.32 | 79882 | 101213
7 | 22:29.39 | 2:17.66 | 101214 | 111554
8 | 24:47.30 | 5:22.34 | 111555 | 135738
9 | 30:09.64 | 4:42.29 | 135739 | 156917
10 | 34:52.18 | 1:52.20 | 156918 | 165337
11 | 36:44.38 | 1:57.68 | 165338 | 174180
12 | 38:42.31 | 2:29.59 | 174181 | 185414

Характеристики диапазона извлечения и сообщения об ошибках

Выбранный диапазон

Имя файла D:\1. Українська\П\Петровичі, родинний гурт\Вітер з гір [FLAC]\Родинний гурт Петровичі - Вітер з гір.wav

Пиковый уровень 96.4 %
Качество диапазона 99.9 %
CRC копии 38253398
Копирование... OK

Ошибок не произошло

Конец отчёта
Додаткова інформація:
Родинний гурт з Прикарпаття, який виконує традиційну музику свого рідного краю.
Чудове живе поєднання цимбал, скрипки, сопілки, бубну та бас-гітари
плюс гарний вокал залишають незабутнє враження.

Родинний гурт "Петровичі" - Вітер з гір (2007) [MP3] - 320 кб/с



Якщо Ви справді бажаєте підтримати українське - після прослуховування, якщо музика вам сподобалась, придбайте ліцензійний диск. Підтримаймо вітчизняних виконавців!


Срібний реліз (на рейтинг впливає 50% завантаженого)
 Трекер:    Зареєстрований   

Завантажити / скачати українську музику



відео для новачків



 Зареєстрований:   2011-10-05 19:31
 Розмір:   246 MB 
 Оцінка музики:   8.9/10 (Голосів: 8)
   
Ваш часовий пояс: GMT + 2 Години

Нова тема   Відповісти