Завантажити та скачати торренти українською


Василь Гонтарський (Вася Club) - Акустика (2007) [FLAC] | Folk Rock

Нові коментарі

Нова тема   Відповісти
Автор Повідомлення
ssTAss 
Модератор музики


З нами з: 05.07.08
Востаннє: 03.12.16
Повідомлень: 10932

2011-10-05 13:44  
Василь Гонтарський (Вася Club) - Акустика (2007) [FLAC] | Folk Rock



Стиль: Folk Rock
Країна, місто: Україна, Київ
Сайти: Офіційний сайт
Видавець: Етнодиск
Виконавці:
Василь Гонтарський

Васи́ль Гонта́рський — (*10 липня 1964, Київ — †19 лютого 2007, Київ) — український співак та музикант, автор пісень та ідейний натхненник гурту «Вася-Клаб».
Народився у Києві. У 1981 р. — закінчив київську школу N 201. 1985—1987 — служба в Радянській армії, стройбат, начальник їдальні. Закінчив Київський державний інститут театрального мистецтва імені Івана Карпенка-Карого.
З 1989 по 1990 рік працював у Москві конферансьє. У 1991 році став дипломантом другого фестивалю «Червона Рута» в Запоріжжі.
У 2001 році заснував гурт «Вася-Клаб». 2000 — участь в експедиції «Шлях із варяг у греки»

Помер Гонтарський 19 лютого 2007 року у Києві. Тіло було виявлено у власному помешканні Василя на вулиці Марини Цвєтаєвої його родичами. Ймовірна причина смерті — серцевий напад.
Поховали Василя Гонтарського у Житомирі поруч із могилою матері.

Засновник "Вася Club" - Василь Гонтарський - був однією з найбільш неординарних особистостей на сцені українського андеграунду. Він навчався в театральному інституті, був відзначений дипломом на другому фестивалі "Червона рута" (1991), проте власну групу створив лише через десять років. Гурт "Вася Клаб" заявив про себе 2001-го, а наступного року серед шанувальників розійшовся доволі зрілий дебютник "Хіпан". Не менший успіх мав і другий диск гурту – "Конкорад", що побачив світ революційного 2004 р., але справжнім "хіпанським" шедевром став торішній (і, на жаль, останній у прижиттєвій дискографії музиканта альбом) майже сольник "Вася і Хобот", записаний у співпраці з харизматичним столичним контрабасистом Юрієм "Хоботом" Галініним. Пісні "Васі Клабу" звучать у "помаранчевій" стрічці "Прорвемося", голос Василя Гонтарського озвучує український варіант популярного данського мультика "Теркель і халепа".
Пісні:
    1. Про Пашу
    музика: Tom Waits
    2. Сільвер Боб
    3. Ізмєна
    4. Грицю
    5. Ліки
    6. Чорна блюз
    7. Конокрад
    музика: В. Гонтарський, Марлен Мамутов
    8. Августа
    9. Ша-ла-лу-ла
    10. Ой, вей!
    11. За фахом я...
    12. Постfuckтум
    музика: Goran Bregovic
    13. Колискова
    14. Бджілка
    15. Батальонный разведчик
    16. Десь у плавнях
log
Exact Audio Copy V0.99 prebeta 5 from 4. May 2009

EAC extraction logfile from 4. July 2010, 14:54

Василь Гонтарський / Акустика

Used drive : SONY DVD RW AW-G170A Adapter: 0 ID: 0

Read mode : Secure
Utilize accurate stream : Yes
Defeat audio cache : Yes
Make use of C2 pointers : No

Read offset correction : 48
Overread into Lead-In and Lead-Out : No
Fill up missing offset samples with silence : Yes
Delete leading and trailing silent blocks : No
Null samples used in CRC calculations : Yes
Used interface : Native Win32 interface for Win NT & 2000
Gap handling : Appended to previous track

Used output format : User Defined Encoder
Selected bitrate : 128 kBit/s
Quality : High
Add ID3 tag : No
Command line compressor : E:\Program Files\Exact Audio Copy\Flac\flac.exe
Additional command line options : -8 -V %s

TOC of the extracted CD

Track | Start | Length | Start sector | End sector
---------------------------------------------------------
1 | 0:00.00 | 1:58.24 | 0 | 8873
2 | 1:58.24 | 2:08.22 | 8874 | 18495
3 | 4:06.46 | 5:17.29 | 18496 | 42299
4 | 9:24.00 | 3:42.74 | 42300 | 59023
5 | 13:06.74 | 2:55.06 | 59024 | 72154
6 | 16:02.05 | 3:31.12 | 72155 | 87991
7 | 19:33.17 | 2:29.33 | 87992 | 99199
8 | 22:02.50 | 2:19.69 | 99200 | 109693
9 | 24:22.44 | 1:45.33 | 109694 | 117601
10 | 26:08.02 | 1:41.47 | 117602 | 125223
11 | 27:49.49 | 2:00.74 | 125224 | 134297
12 | 29:50.48 | 2:46.32 | 134298 | 146779
13 | 32:37.05 | 2:06.32 | 146780 | 156261
14 | 34:43.37 | 2:10.40 | 156262 | 166051
15 | 36:54.02 | 6:19.70 | 166052 | 194546
16 | 43:13.72 | 4:27.07 | 194547 | 214578

Track 1

Filename J:\MuZika\Вася Club - 2007 - Акустика\01. Василь Гонтарський - Про Пашу.wav

Pre-gap length 0:00:02.00

Peak level 99.6 %
Track quality 100.0 %
Test CRC 39B6788E
Copy CRC 39B6788E
Track not present in AccurateRip database
Copy OK

Track 2

Filename J:\MuZika\Вася Club - 2007 - Акустика\02. Василь Гонтарський - Сiльвер Боб.wav

Pre-gap length 0:00:02.00

Peak level 100.0 %
Track quality 100.0 %
Test CRC 472100CA
Copy CRC 472100CA
Track not present in AccurateRip database
Copy OK

Track 3

Filename J:\MuZika\Вася Club - 2007 - Акустика\03. Василь Гонтарський - Iзмэна.wav

Pre-gap length 0:00:02.00

Peak level 99.4 %
Track quality 100.0 %
Test CRC B6541CB7
Copy CRC B6541CB7
Track not present in AccurateRip database
Copy OK

Track 4

Filename J:\MuZika\Вася Club - 2007 - Акустика\04. Василь Гонтарський - Грицю.wav

Pre-gap length 0:00:02.00

Peak level 100.0 %
Track quality 100.0 %
Test CRC 11ABE41B
Copy CRC 11ABE41B
Track not present in AccurateRip database
Copy OK

Track 5

Filename J:\MuZika\Вася Club - 2007 - Акустика\05. Василь Гонтарський - Лiки.wav

Pre-gap length 0:00:02.00

Peak level 99.0 %
Track quality 100.0 %
Test CRC 86AB9260
Copy CRC 86AB9260
Track not present in AccurateRip database
Copy OK

Track 6

Filename J:\MuZika\Вася Club - 2007 - Акустика\06. Василь Гонтарський - Чорна блюз.wav

Pre-gap length 0:00:02.00

Peak level 100.0 %
Track quality 99.9 %
Test CRC 967A5A8E
Copy CRC 967A5A8E
Track not present in AccurateRip database
Copy OK

Track 7

Filename J:\MuZika\Вася Club - 2007 - Акустика\07. Василь Гонтарський - Конокрад.wav

Pre-gap length 0:00:02.00

Peak level 99.2 %
Track quality 99.9 %
Test CRC 97D0BF40
Copy CRC 97D0BF40
Track not present in AccurateRip database
Copy OK

Track 8

Filename J:\MuZika\Вася Club - 2007 - Акустика\08. Василь Гонтарський - Августа.wav

Pre-gap length 0:00:02.00

Peak level 98.1 %
Track quality 100.0 %
Test CRC CC5D1A16
Copy CRC CC5D1A16
Track not present in AccurateRip database
Copy OK

Track 9

Filename J:\MuZika\Вася Club - 2007 - Акустика\09. Василь Гонтарський - Ша-ла-лу-ла.wav

Pre-gap length 0:00:02.00

Peak level 100.0 %
Track quality 100.0 %
Test CRC 4925F3E7
Copy CRC 4925F3E7
Track not present in AccurateRip database
Copy OK

Track 10

Filename J:\MuZika\Вася Club - 2007 - Акустика\10. Василь Гонтарський - Ой, Вей!.wav

Pre-gap length 0:00:02.00

Peak level 95.9 %
Track quality 99.8 %
Test CRC E90CBE8C
Copy CRC E90CBE8C
Track not present in AccurateRip database
Copy OK

Track 11

Filename J:\MuZika\Вася Club - 2007 - Акустика\11. Василь Гонтарський - За фахом я....wav

Pre-gap length 0:00:02.00

Peak level 96.9 %
Track quality 100.0 %
Test CRC 956A2340
Copy CRC 956A2340
Track not present in AccurateRip database
Copy OK

Track 12

Filename J:\MuZika\Вася Club - 2007 - Акустика\12. Василь Гонтарський - ПОСТFUCKТУМ.wav

Pre-gap length 0:00:02.00

Peak level 100.0 %
Track quality 100.0 %
Test CRC D8465238
Copy CRC D8465238
Track not present in AccurateRip database
Copy OK

Track 13

Filename J:\MuZika\Вася Club - 2007 - Акустика\13. Василь Гонтарський - Колискова.wav

Pre-gap length 0:00:02.00

Peak level 63.8 %
Track quality 100.0 %
Test CRC 4A1108D7
Copy CRC 4A1108D7
Track not present in AccurateRip database
Copy OK

Track 14

Filename J:\MuZika\Вася Club - 2007 - Акустика\14. Василь Гонтарський - Бджiлка.wav

Pre-gap length 0:00:02.00

Peak level 87.3 %
Track quality 100.0 %
Test CRC 4A5E5DD4
Copy CRC 4A5E5DD4
Track not present in AccurateRip database
Copy OK

Track 15

Filename J:\MuZika\Вася Club - 2007 - Акустика\15. Василь Гонтарський - Батальонный Разведчик.wav

Pre-gap length 0:00:02.00

Peak level 100.0 %
Track quality 100.0 %
Test CRC 27B123A4
Copy CRC 27B123A4
Track not present in AccurateRip database
Copy OK

Track 16

Filename J:\MuZika\Вася Club - 2007 - Акустика\16. Василь Гонтарський - Десь у плавнях.wav

Pre-gap length 0:00:02.00

Peak level 99.6 %
Track quality 99.8 %
Test CRC 5B22AF50
Copy CRC 5B22AF50
Track not present in AccurateRip database
Copy OK

None of the tracks are present in the AccurateRip database

No errors occurred

End of status report
fooCDtect
fooCDtect - foobar2000 + auCDtect, baralgin.

auCDtect: CD records authenticity detector, version 0.8.2
Copyright (c) 2004 Oleg Berngardt. All rights reserved.
Copyright (c) 2004 Alexander Djourik. All rights reserved.

mode: 0

=======================================================
Track: 01 - Про Пашу
Quality: CDDA, 100%
=======================================================
Track: 02 - Сiльвер Боб
Quality: CDDA, 100%
=======================================================
Track: 03 - Iзмэна
Quality: CDDA, 100%
=======================================================
Track: 04 - Грицю
Quality: CDDA, 100%
=======================================================
Track: 05 - Лiки
Quality: CDDA, 99%
=======================================================
Track: 06 - Чорна блюз
Quality: CDDA, 100%
=======================================================
Track: 07 - Конокрад
Quality: CDDA, 100%
=======================================================
Track: 08 - Августа
Quality: CDDA, 100%
=======================================================
Track: 09 - Ша-ла-лу-ла
Quality: CDDA, 100%
=======================================================
Track: 10 - Ой, Вей!
Quality: CDDA, 100%
=======================================================
Track: 11 - За фахом я...
Quality: CDDA, 99%
=======================================================
Track: 12 - ПОСТFUCKТУМ
Quality: CDDA, 100%
=======================================================
Track: 13 - Колискова
Quality: CDDA, 99%
=======================================================
Track: 14 - Бджiлка
Quality: CDDA, 100%
=======================================================
Track: 15 - Батальонный Разведчик
Quality: CDDA, 100%
=======================================================
Track: 16 - Десь у плавнях
Quality: CDDA, 100%
=======================================================
Тривалість: 00:47:41
Мова: українська, російська (1, 15)
Аудіо-кодек: FLAC
Бітрейт: 685 кб/с
Джерело: інтернет
Додаткова інформація:
Акустика – завжди наближення до чистоти. Акустика – найбільш чесна і безкомпромісна музика, бо тут немає нічого, чим можна приховати помилки. І – тут немає нічого, що відволікало б і заважало дивитися всередину. Це найбільш простий і найбільш складний формат одночасно – немає нічого, крім гітари та голосу, і ти або звучиш, або краще б тобі і не починати... "Акустика" – останній справжній альбом Василя Гонтарського, п’ятий. Більше не буде. Якби ж то всі лишали по собі настільки світлі сліди – земля світилася б під нашими ногами... Втім, вона таки і світиться – просто ми чомусь цього не помічаємо. Лише інколи, коли наодинці зі своїм серцем розумієш раптом, що немає в світі більшої свободи, ніж любов – тоді світиться вже не тільки земля. І щастя, якщо вмієш поділитися з кимось цією радістю. Василь Гонтарський – умів, його пісні достоту повні цим таким земним, але таким затишним світлом, і в "Акустиці" це чутно особливо ясно. Між іншим, поруч зі знайомими вже піснями Ви знайдете тут і такі, які видаються вперше – дивно, але й дуже приємно. Вони дійсно різні – і за мовою, і за характером, настроєм, є тут навіть пара нецензурних слів – але все це дрібниці. Настрій – зовні, щирість – всередині, і не відчути її – неможливо.
Антон Йожик Лейба


Якщо Ви справді бажаєте підтримати українське - після прослуховування, якщо музика вам сподобалась,
придбайте ліцензійний диск.
Підтримаймо вітчизняних виконавців!


Срібний реліз (на рейтинг впливає 50% завантаженого)
 Трекер:    Зареєстрований   

Завантажити / скачати українську музику



відео для новачків



 Зареєстрований:   2013-12-07 23:12
 Розмір:   234 MB 
 Оцінка музики:   7.9/10 (Голосів: 13)
   
deepfree 
VIP


З нами з: 11.02.09
Востаннє: 03.12.16
Повідомлень: 263

2011-10-05 23:44  
ssTAss
ssTAss написано:

придбайте ліцензійний диск.
Підтримаймо вітчизняних виконавців!

на жаль Васю ми вже не підтримаємо Sad (1)

ssTAss 
Модератор музики


З нами з: 05.07.08
Востаннє: 03.12.16
Повідомлень: 10932

2013-12-07 23:14  
мали місце деякі технічні проблеми, тому торент-файл було перезалито
прохання до всіх перезавантажити

Ваш часовий пояс: GMT + 2 Години

Нова тема   Відповісти