Завантажити та скачати торренти українською


Метод Хітча / Hitch (2005) 720p Ukr | sub Multi

Нові коментарі

Нова тема   Відповісти
Автор Повідомлення
DеLight 
Відео Гуртом - фільмокрай
Відео Гуртом - фільмокрай


З нами з: 24.08.11
Востаннє: 17.11.16
Повідомлень: 664

2011-09-30 19:18  
Метод Хітча / Hitch (2005) 720p Ukr | sub Multi




«The cure for the common man.»


Жанр: комедія, мелодрама
Країна: США



Кіностудія / кінокомпанія: Columbia Pictures Corporation, Overbrook Entertainment
Режисер: Енді Теннант / Andy Tennant
Актори: Вілл Сміт / Will Smith, Єва Мендес / Eva Mendes, Кевін Джеймс / Kevin James, Амбер Валетта / Amber Valletta, Джулі Енн Емері / Julie Ann Emery, Адам Аркін / Adam Arkin, Робін Лі / Robinne Lee, Натан Лі Грехем / Nathan Lee Graham, Майкл Рапапорт / Michael Rapaport, Джеффрі Донован / Jeffrey Donovan, Паула Паттон / Paula Patton, Філіп Боско / Philip Bosco, Кевін Суссман / Kevin Sussman, Навіа Нгуєн / Navia Nguyen, Метт Маллой / Matt Malloy

Сюжет:
Алекс «Хітч» Хітченс - легендарний нью-йоркський «доктор-сват». Безлічі чоловіків він допоміг добитися взаємності від жінок їх мрії. Хітч не безкорисливий, він отримує за свою роботу гонорари, але передбачливо зберігає в таємниці свій спосіб заробляти на життя.

Новий клієнт Хітча - Альберт, боязкий бухгалтер, без розуму закоханий в гламурну зірку Алегру Коул. Для Хітча цей випадок повинен стати вершиною його кар'єри. Проте, працюючи над цією справою, він раптом зустрічає гідного противника в особі ефектної і проникливої ​​Сари Мелас, журналістки, яка веде колонку світських пліток, і стежить за кожним кроком Алегри.

Професійний холостяк Хітч раптово виявляє, що по вуха закоханий в Сару, яка, в свою чергу, близька до сенсаційного відкриття: вона тільки що вийшла на слід таємничого манхеттенського «доктора-свата»...



Тривалість: 01:58:16
Якість: 720p

Відео:
кодек:
розмір кадру: 1280 x 536
бітрейт: 4 840 кб/с

Аудіо # 1:
мова: українська
переклад: багатоголосий закадровий
кодек: 5.1
бітрейт: 448 кб/с

Джерело озвучення:


Субтитри:
мова: англійська, голландська, датська, іспанська, норвезька, французька, швецька
тип: програмні (м'які)
формат: *.srt



->переглянути<-

General
Unique ID : 234357708686559386213849718738763343752 (0xB04FA7238520353E8F494A08116F6788)
Complete name : D:\Torrents\Hitch (2005) 720p [Ukr] [Hurtom & 0day].mkv
Format : Matroska
File size : 4.37 GiB
Duration : 1h 58mn
Overall bit rate : 5 290 Kbps
Movie name : Hitch (2005) 720p [Ukr] [Hurtom & 0day] by Dony
Encoded date : UTC 2011-09-30 12:51:57
Writing application : mkvmerge v4.8.0 ('I Got The...') зібрано May 24 2011 03:12:58
Writing library : libebml v1.2.0 + libmatroska v1.1.0

Video
ID : 1
Format : AVC
Format/Info : Advanced Video Codec
Format profile : [email protected]
Format settings, CABAC : Yes
Format settings, ReFrames : 9 frames
Muxing mode : Header stripping
Codec ID : V_MPEG4/ISO/AVC
Duration : 1h 58mn
Bit rate : 4 840 Kbps
Width : 1 280 pixels
Height : 536 pixels
Display aspect ratio : 2.35:1
Frame rate : 23.976 fps
Color space : YUV
Chroma subsampling : 4:2:0
Bit depth : 8 bits
Scan type : Progressive
Bits/(Pixel*Frame) : 0.294
Stream size : 3.91 GiB (90%)
Title : Hitch (2005) 720p Video Stream [LsE]
Writing library : core 54 svn-628M
Encoding settings : cabac=1 / ref=6 / deblock=1:-3:-2 / analyse=0x3:0x133 / me=hex / subme=6 / brdo=1 / mixed_ref=1 / me_range=16 / chroma_me=1 / trellis=1 / 8x8dct=1 / cqm=2 / deadzone=21,11 / chroma_qp_offset=0 / threads=3 / nr=0 / decimate=1 / mbaff=0 / bframes=3 / b_pyramid=1 / b_adapt=1 / b_bias=0 / direct=1 / wpredb=1 / bime=1 / keyint=250 / keyint_min=25 / scenecut=40(pre) / rc=2pass / bitrate=4840 / ratetol=0.5 / rceq='blurCplx^(1-qComp)' / qcomp=0.50 / qpmin=4 / qpmax=35 / qpstep=4 / cplxblur=20.0 / qblur=0.5 / ip_ratio=1.30 / pb_ratio=1.20
Language : English

Audio
ID : 2
Format : AC-3
Format/Info : Audio Coding 3
Mode extension : CM (complete main)
Muxing mode : Header stripping
Codec ID : A_AC3
Duration : 1h 58mn
Bit rate mode : Constant
Bit rate : 448 Kbps
Channel(s) : 6 channels
Channel positions : Front: L C R, Side: L R, LFE
Sampling rate : 48.0 KHz
Bit depth : 16 bits
Compression mode : Lossy
Stream size : 379 MiB (8%)
Title : 5.1, 448 kbps {ТРК Україна}
Language : Ukrainian

Text #1
ID : 3
Format : UTF-8
Codec ID : S_TEXT/UTF8
Codec ID/Info : UTF-8 Plain Text
Title : English
Language : English

Text #2
ID : 4
Format : UTF-8
Codec ID : S_TEXT/UTF8
Codec ID/Info : UTF-8 Plain Text
Title : French
Language : French

Text #3
ID : 5
Format : UTF-8
Codec ID : S_TEXT/UTF8
Codec ID/Info : UTF-8 Plain Text
Title : Spanish
Language : Spanish

Text #4
ID : 6
Format : UTF-8
Codec ID : S_TEXT/UTF8
Codec ID/Info : UTF-8 Plain Text
Title : Swedish
Language : Swedish

Text #5
ID : 7
Format : UTF-8
Codec ID : S_TEXT/UTF8
Codec ID/Info : UTF-8 Plain Text
Title : Norwegian
Language : Norwegian

Text #6
ID : 8
Format : UTF-8
Codec ID : S_TEXT/UTF8
Codec ID/Info : UTF-8 Plain Text
Title : Danish
Language : Danish

Text #7
ID : 9
Format : UTF-8
Codec ID : S_TEXT/UTF8
Codec ID/Info : UTF-8 Plain Text
Title : Dutch
Language : Dutch
->переглянути<-














Джерело: &
Подяка LIONN за українську доріжку
Особиста оцінка: 9 - суперовий фільм


 Трекер:    Зареєстрований   

Завантажити / скачати фільм українською



відео для новачків



 Зареєстрований:   2011-09-30 19:18
 Розмір:   4.37 GB 
 Оцінка фільму:   9.8/10 (Голосів: 42)
   
DiGen 
Модератор HD та координатор Команди HD
Модератор HD та координатор Команди HD


З нами з: 12.11.09
Востаннє: 24.06.13
Повідомлень: 1452

2011-09-30 22:21  
То власна робота по кодуванню відео чи взято звідкісь? Якщо власне кодування, то які параметри виставлялось; кодування за скільки проходів?
DеLight 
Відео Гуртом - фільмокрай
Відео Гуртом - фільмокрай


З нами з: 24.08.11
Востаннє: 17.11.16
Повідомлень: 664

2011-09-30 22:55  
DiGen

Ні, не власна. Відеоріп від 0day, це вказано в назві файлу і в джерелі.

MasterYura 
Відео Гуртом - фільмокрай
Відео Гуртом - фільмокрай


З нами з: 21.11.09
Востаннє: 08.12.16
Повідомлень: 927

2012-02-22 13:04  
цікаво. На днях бачив фільм по трк Україна, там здається куда краща озвучка ніж тут...
oleksandr222 
Новенький


З нами з: 15.08.12
Востаннє: 22.12.12
Повідомлень: 13

2012-08-15 20:35  
Цитата:
цікаво. На днях бачив фільм по трк Україна, там здається куда краща озвучка ніж тут...


Класний фільм і озвучка

11FrYkT 
Модератор відео


З нами з: 20.02.11
Востаннє: 08.12.16
Повідомлень: 3130

2012-08-15 23:01  
Хороший фільм, дякую!
DеLight 
Відео Гуртом - фільмокрай
Відео Гуртом - фільмокрай


З нами з: 24.08.11
Востаннє: 17.11.16
Повідомлень: 664

2012-08-15 23:18  
MasterYura написано:
цікаво. На днях бачив фільм по трк Україна, там здається куда краща озвучка ніж тут...

так це і є ТРК Україна, чи мова про якість доріжки у релізі?
11FrYkT написано:
Хороший фільм, дякую!

так, фільм мего класнючий, будь ласка! Wink (1)

STONTS 
Озвучення


З нами з: 04.06.12
Востаннє: 04.12.16
Повідомлень: 282

2012-09-30 19:45  
Дякую )) До речі студія "мова" чудово озвучує !
Вадька 
Частий відвідувач


З нами з: 02.07.11
Востаннє: 08.12.16
Повідомлень: 33

2012-12-24 23:29  
Чудовий фільм, місцями дуже здорово повеселив!)
pony 
VIP


З нами з: 14.05.10
Востаннє: 08.12.16
Повідомлень: 312

2013-02-10 01:59  
тут такий переклад як і був по 1+1?
Віктор 
Відео Гуртом - субтитрування
Відео Гуртом - субтитрування


З нами з: 09.01.10
Востаннє: 09.12.16
Повідомлень: 8663

2013-02-10 02:27  
pony написано:
тут такий переклад як і був по 1+1?

Там дубляж був. Тут
Delight` написано:
багатоголосий закадровий
. Скоро буде реліз з двома укр.
pony 
VIP


З нами з: 14.05.10
Востаннє: 08.12.16
Повідомлень: 312

2013-02-10 02:36  
Віктор
буду вдячний за реліз з двома доріжками,а з приводу озвучки-не відрізняю яка є якою.

Magistr2010 
Новенький


З нами з: 24.01.13
Востаннє: 08.12.16
Повідомлень: 1

2013-11-17 22:30  
а ніхто часом не записав українську доріжку з ICTV?
їх озвучення більш краще за дане

Ваш часовий пояс: GMT + 2 Години

Нова тема   Відповісти