Завантажити та скачати торренти українською


Королі вулиць / Street Kings (2008) 720p Ukr/Eng | Sub Ukr/Eng

Нові коментарі

Нова тема   Відповісти
Автор Повідомлення
Віктор 
Відео Гуртом - субтитрування
Відео Гуртом - субтитрування


З нами з: 09.01.10
Востаннє: 02.12.16
Повідомлень: 8661

2011-09-30 17:39  
Королі вулиць / Street Kings (2008) 720p Ukr/Eng | Sub Ukr/Eng




«Their City. Their Rules. No Prisoners.»


Жанр: пригодницький, кримінальний, драма
Країна: США.


Кіностудія / кінокомпанія: Fox Searchlight Pictures, Regency Enterprises, 3 Arts Entertainment
Режисери: Девід Аєр (David Ayer)
Композитор: Ґрайм Ревелл (Graeme Revell)
Актори: Кіану Рівз (Keanu Reeves), Форест Вайтакер (Forest Whitaker), Г'ю Лорі (Hugh Laurie), Кріс Еванс (Chris Evans), Джей Мор (Jay Mohr) та інші.

Сюжет:
Поліцейський з Лос-Анджелеса жодного разу в житті не замислювався над тим, що його може чекати за межею власного затишного світу. Проте зі смертю улюбленої дружини в його життя входить темна, нещадна, відчайдушна порожнеча. Ладлов вимушений діяти, коли його ж власні друзі-соратники звинувачують його у вбивстві. Так починається боротьба людини за своє місце у світі, який все більше і більше контролюється зовнішніми силами.
Чи знали ви, що....

• Зйомки проходили з 21 травня 2007 року в Лос-Анджелесі.
• Джеймс Еллрой написав сценарну заявку в середині 90-х під враженням від судового процесу над О. Дж. Сімпсоном. З тих пір до роботи над фільмом залучалися Олівер Стоун, Спайк Лі і Девід Фінчер, а головну роль мав зіграти Шон Пенн.
• Під час перестрілки в магазині Том Ладлов поранив Вашингтона в праву лопатку, а пізніше читає в результатах балістичної експертизи, що куля витягнута з лівої лопатки.
• Бюджет - $20,000,000
MediaInfo

Код:

General
Unique ID                        : 183509402802805328681042208244974472403 (0x8A0EA019C910CE31995D14CEF34FCCD3)
Complete name                    : D:\HURTOM\Street Kings (2008) [Ukr, Eng] 720p [Hurtom].mkv
Format                           : Matroska
File size                        : 7.01 GiB
Duration                         : 1h 48mn
Overall bit rate                 : 9 225 Kbps
Movie name                       : Street Kings (2008) [Ukr, Eng] 720p [Hurtom]
Encoded date                     : UTC 2011-09-30 12:24:19
Writing application              : mkvmerge v4.7.0 ('Just Like You Imagined') зібрано Apr 21 2011 01:13:14
Writing library                  : libebml v1.2.0 + libmatroska v1.1.0

Video
ID                               : 1
Format                           : AVC
Format/Info                      : Advanced Video Codec
Format profile                   : [email protected]
Format settings, CABAC           : Yes
Format settings, ReFrames        : 5 frames
Codec ID                         : V_MPEG4/ISO/AVC
Duration                         : 1h 48mn
Bit rate                         : 7 040 Kbps
Width                            : 1 280 pixels
Height                           : 532 pixels
Display aspect ratio             : 2.40:1
Frame rate                       : 23.976 fps
Color space                      : YUV
Chroma subsampling               : 4:2:0
Bit depth                        : 8 bits
Scan type                        : Progressive
Bits/(Pixel*Frame)               : 0.431
Stream size                      : 5.21 GiB (74%)
Title                            : Street Kings (2008) [Ukr, Eng] 720p [Hurtom]
Writing library                  : core 60 r935M c6456de
Encoding settings                : cabac=1 / ref=5 / deblock=1:-3:-3 / analyse=0x3:0x133 / me=umh / subme=7 / psy_rd=1.0 / brdo=1 / mixed_ref=1 / me_range=26 / chroma_me=1 / trellis=2 / 8x8dct=1 / cqm=0 / deadzone=21,11 / chroma_qp_offset=-4 / threads=6 / nr=0 / decimate=1 / mbaff=0 / bframes=4 / b_pyramid=1 / b_adapt=1 / b_bias=0 / direct=1 / wpredb=1 / bime=1 / keyint=250 / keyint_min=25 / scenecut=40(pre) / rc=2pass / bitrate=7040 / ratetol=1.0 / rceq='blurCplx^(1-qComp)' / qcomp=1.00 / qpmin=10 / qpmax=51 / qpstep=4 / cplxblur=20.0 / qblur=0.5 / ip_ratio=1.40 / pb_ratio=1.30 / aq=2:1.20
Language                         : English

Audio #1
ID                               : 2
Format                           : AC-3
Format/Info                      : Audio Coding 3
Mode extension                   : CM (complete main)
Codec ID                         : A_AC3
Duration                         : 1h 48mn
Bit rate mode                    : Constant
Bit rate                         : 448 Kbps
Channel(s)                       : 6 channels
Channel positions                : Front: L C R, Side: L R, LFE
Sampling rate                    : 48.0 KHz
Bit depth                        : 16 bits
Compression mode                 : Lossy
Stream size                      : 349 MiB (5%)
Title                            : 5.1 448 Kbps - багатоголосий закадровий
Language                         : Ukrainian

Audio #2
ID                               : 3
Format                           :
Format/Info                      : Digital Theater Systems
Codec ID                         : A_DTS
Duration                         : 1h 48mn
Bit rate mode                    : Constant
Bit rate                         : 1 510 Kbps
Channel(s)                       : 6 channels
Channel positions                : Front: L C R, Side: L R, LFE
Sampling rate                    : 48.0 KHz
Bit depth                        : 24 bits
Compression mode                 : Lossy
Delay relative to video          : 11ms
Stream size                      : 1.15 GiB (16%)
Title                            : 5.1 1536 Kbps
Language                         : English

Audio #3
ID                               : 4
Format                           : AC-3
Format/Info                      : Audio Coding 3
Mode extension                   : CM (complete main)
Codec ID                         : A_AC3
Duration                         : 1h 48mn
Bit rate mode                    : Constant
Bit rate                         : 224 Kbps
Channel(s)                       : 2 channels
Channel positions                : Front: L R
Sampling rate                    : 48.0 KHz
Bit depth                        : 16 bits
Compression mode                 : Lossy
Stream size                      : 174 MiB (2%)
Title                            : 2.0 224 Kbps - Commentary by David Ayer
Language                         : English

Text #1
ID                               : 5
Format                           : UTF-8
Codec ID                         : S_TEXT/UTF8
Codec ID/Info                    : UTF-8 Plain Text
Language                         : Ukrainian

Text #2
ID                               : 6
Format                           : UTF-8
Codec ID                         : S_TEXT/UTF8
Codec ID/Info                    : UTF-8 Plain Text
Language                         : English
Усі наявні релізи

Завантажити:
720p Ukr/Eng | Sub Ukr/Eng (7.01 GB) - багатоголосий закадровий запис звуку з ICTV
Ukr/Eng | sub Eng (2.18 GB) - багатоголосий закадровий запис звуку з ICTV
(1.37 GB) - багатоголосий закадровий запис звуку з ICTV

Ролі озвучили: Кіану Рівз - Ярослав Чорненький, Форрест Вайтакер - Олег Стальчук, Х'ю Лоррі - Юрій Гребельник
Тривалість: 01:48:48
Якість: 720p (CtrlHD)
Відео:
кодек:
розмір кадру: 1280х532
бітрейт: 7040 кб/с

Аудіо # 1:
мова: українська
переклад: багатоголосий закадровий запис з ICTV
кодек: 5.1
бітрейт: 448 кб/с

Аудіо # 2:
мова: англійська
переклад: оригінал
кодек: 5.1
бітрейт: 1536 кб/с

Аудіо # 3:
мова: англійська (коментарі режисера)
кодек: 2.0
бітрейт: 224 кб/с

Субтитри # 1:
мова: українська
тип: програмні (м'які)
формат: *.srt
джерело субтитрів: Blu Ray (HQSub's), редагування: w2958l

Субтитри # 2:
мова: англійська
тип: програмні (м'які)
формат: *.srt

Скріншоти:




За запис звуку з ТБ подяки МАКАРОННІК і olgaya
За створення української доріжки подяка JACKUS


Джерело: &
Особиста оцінка: 9 - давно не бачив настільки якісне кіно


 Трекер:    Зареєстрований   

Завантажити / скачати фільм українською



відео для новачків



 Зареєстрований:   2011-09-30 17:39
 Розмір:   7.01 GB 
 Оцінка фільму:   8.9/10 (Голосів: 8)
   
Інші релізи
   Королі вулиць / Street Kings (2008) 1080p Ukr/Eng | Sub Ukr/Eng igor911  2 / 0   5.77 GB   2013-07-23 06:38 
   Королі вулиць / Street Kings (2008) BASTERD-94  1 / 0   1.37 GB   2011-08-22 23:14 
   Королі вулиць / Street Kings (2008) Ukr/Eng | sub Eng JACKUS  5 / 0   2.18 GB   2011-02-28 01:01 
Ваш часовий пояс: GMT + 2 Години

Нова тема   Відповісти