Завантажити та скачати торренти українською


Хітмен / Гітмен / Hitman (Розширена версія / Unrated) (2007) 720p Ukr/Eng | Sub Ukr/Eng

Нові коментарі

Нова тема   Відповісти
Автор Повідомлення
Віктор 
Відео Гуртом - субтитрування
Відео Гуртом - субтитрування


З нами з: 09.01.10
Востаннє: 07.12.16
Повідомлень: 8663

2011-09-29 10:47  
Хітмен / Гітмен / Hitman (Розширена версія / Unrated) (2007) 720p Ukr/Eng | Sub Ukr/Eng



Жанр: бойовик, трилер, драма, кримінальний
Країна: США, Франція



Кіностудія / кінокомпанія: Twentieth Century Fox Film Corporation, Europa Corp., Anka Film
Режисер: Ксав'єр Ґенс (Xavier Gens)
Композитор: Джеоф Занеллі (Geoff Zanelli)
Актори: Тімоті Оліфант (Timothy Olyphant), Дюґрей Скот (Dougray Scott), Ольга Куриленко (Olga Kurylenko), Роберт Неппер (Robert Knepper), Ульріх Томсен (Ulrich Thomsen), Генрі Йен К'юсік (Henry Ian Cusick), Міхаель Оффей (Michael Offei), Крістіан Еріксон (Christian Erickson), Ерік Ебоні (Eriq Ebouaney), Джо Шерідан (Joe Sheridan), Джеймс Фолькнер (James Faulkner) та інші.

Сюжет:
Гітмен був навчений, як високо професійний вбивця, чия наймогутніша зброя — це холоднокровність і безмірна гордість за свою роботу. 47 — це дві останні цифри на штрих-коді, витатуйованому на його потилиці, а також його єдине ім'я.
Цікаві факти


• В одній зі сцен фільму можна помітити гру Hitman, за якою знімався цей фільм.
• Виконавчим продюсером фільму є Він Дизель, який спочатку повинен був зіграти роль аґента 47.
• Роль «Центрального» вокзалу Санкт-Петербурга у фільмі грав «Київський» у Москві, та й то тільки зовні. Інтер'єр знімався в Софії.
• В одній зі сцен фільму можна помітити кількох співробітників ФСБ. Однак абревіатура написана неправильно - літера С на куртках розвернута у зворотний бік.
• Бюджет: $24,000,000
MediaInfo

Код:

General
Unique ID                        : 227831388471732352721785560696033849605 (0xAB66BAB58FA66010A2F36E8D3D3F3105)
Complete name                    : D:\HURTOM\Hitman [Unrated] (2007) [Ukr, Eng] 720p [Hurtom & HDCLUB].mkv
Format                           : Matroska
File size                        : 4.25 GiB
Duration                         : 1h 34mn
Overall bit rate                 : 6 452 Kbps
Movie name                       : Hitman [Unrated] (2007) [Ukr, Eng] 720p [Hurtom & HDCLUB]
Encoded date                     : UTC 2011-09-29 10:58:38
Writing application              : mkvmerge v4.7.0 ('Just Like You Imagined') зібрано Apr 21 2011 01:13:14
Writing library                  : libebml v1.2.0 + libmatroska v1.1.0
Cover                            : Yes / Yes / Yes

Video
ID                               : 1
Format                           : AVC
Format/Info                      : Advanced Video Codec
Format profile                   : [email protected]
Format settings, CABAC           : Yes
Format settings, ReFrames        : 10 frames
Codec ID                         : V_MPEG4/ISO/AVC
Duration                         : 1h 34mn
Bit rate                         : 5 120 Kbps
Width                            : 1 280 pixels
Height                           : 552 pixels
Display aspect ratio             : 2.35:1
Frame rate                       : 23.976 fps
Color space                      : YUV
Chroma subsampling               : 4:2:0
Bit depth                        : 8 bits
Scan type                        : Progressive
Bits/(Pixel*Frame)               : 0.302
Stream size                      : 3.29 GiB (77%)
Title                            : Hitman [Unrated] (2007) [Ukr, Eng] 720p [Hurtom & HDCLUB]
Writing library                  : core 58 r798M 17e5dac
Encoding settings                : cabac=1 / ref=10 / deblock=1:-3:-3 / analyse=0x3:0x133 / me=umh / subme=7 / me-prepass=0 / brdo=1 / mixed_ref=1 / me_range=24 / chroma_me=1 / trellis=0 / 8x8dct=1 / cqm=2 / deadzone=6,6 / chroma_qp_offset=0 / threads=6 / nr=0 / decimate=1 / mbaff=0 / bframes=3 / b_pyramid=1 / b_adapt=1 / b_bias=0 / direct=1 / wpredb=1 / bime=1 / keyint=250 / keyint_min=25 / scenecut=40(pre) / rc=2pass / bitrate=5120 / ratetol=1.0 / rceq='blurCplx^(1-qComp)' / qcomp=1.00 / qpmin=10 / qpmax=51 / qpstep=4 / cplxblur=20.0 / qblur=0.5 / ip_ratio=1.40 / pb_ratio=1.30 / aq=1:0.5:15.0
Language                         : English

Audio #1
ID                               : 2
Format                           : AC-3
Format/Info                      : Audio Coding 3
Mode extension                   : CM (complete main)
Codec ID                         : A_AC3
Duration                         : 1h 34mn
Bit rate mode                    : Constant
Bit rate                         : 384 Kbps
Channel(s)                       : 6 channels
Channel positions                : Front: L C R, Side: L R, LFE
Sampling rate                    : 48.0 KHz
Bit depth                        : 16 bits
Compression mode                 : Lossy
Stream size                      : 259 MiB (6%)
Title                            : 5.1 384 kbps - професійний дубльований
Language                         : Ukrainian

Audio #2
ID                               : 3
Format                           : AC-3
Format/Info                      : Audio Coding 3
Mode extension                   : CM (complete main)
Codec ID                         : A_AC3
Duration                         : 1h 34mn
Bit rate mode                    : Constant
Bit rate                         : 192 Kbps
Channel(s)                       : 2 channels
Channel positions                : Front: L R
Sampling rate                    : 48.0 KHz
Bit depth                        : 16 bits
Compression mode                 : Lossy
Stream size                      : 129 MiB (3%)
Title                            : 2.0 192 kbps - професійний дубльований
Language                         : Ukrainian

Audio #3
ID                               : 4
Format                           :
Format/Info                      : Digital Theater Systems
Codec ID                         : A_DTS
Duration                         : 1h 34mn
Bit rate mode                    : Constant
Bit rate                         : 755 Kbps
Channel(s)                       : 6 channels
Channel positions                : Front: L C R, Side: L R, LFE
Sampling rate                    : 48.0 KHz
Bit depth                        : 24 bits
Compression mode                 : Lossy
Delay relative to video          : 11ms
Stream size                      : 509 MiB (12%)
Title                            : 5.1 768 kbps
Language                         : English

Text #1
ID                               : 5
Format                           : UTF-8
Codec ID                         : S_TEXT/UTF8
Codec ID/Info                    : UTF-8 Plain Text
Language                         : Ukrainian

Text #2
ID                               : 6
Format                           : UTF-8
Codec ID                         : S_TEXT/UTF8
Codec ID/Info                    : UTF-8 Plain Text
Language                         : English
Релізи та інформація про озвучення/дублювання

720p Ukr/Eng | Sub Ukr/Eng (4.12 GB) — професійний дубльований запис з 1+1
Ukr/Eng | Sub Ukr (1.71 GB) — професійний дубльований запис з 1+1

Ролі дублювали: Тімоті Оліфант — Андрій Твердак, Дюґрей Скот — Олег Лепенець, Ольга Куриленко — Наталя Ярошенко, Міхаель Оффей — Михайло Жонін, Роберт Неппер — Юрій Коваленко, Джеймс Фолькнер — Олександр Задніпровський, Юлія Перенчук, Людмила Ардельян, Максим Кондратюк, Анатолій Зіновенко, Ульріх Томсен — Олександр Завальський та інші.
Тривалість: 01:34:14
Якість: 720р (ESiR)
Відео:
кодек:
розмір кадру: 1280х552
бітрейт: 5120 кб/с

Аудіо # 1:
мова: українська
переклад: професійний дубльований запис з 1+1
кодек: 5.1
бітрейт: 384 кб/с

Аудіо # 2:
мова: українська
переклад: професійний дубльований запис з 1+1
кодек: 2.0
бітрейт: 192 кб/с

Аудіо # 3:
мова: англійська
переклад: ориґінал
кодек: 5.1
бітрейт: 768 кб/с

Субтитри # 1:
мова: українська
тип: програмні (м'які)
формат: *.srt
джерело субтитрів: напевно Blu Ray, (примітка: за українські субтитри подяка -Geleodor), редагування: w2958l

Субтитри # 2:
мова: англійська
тип: програмні (м'які)
формат: *.srt

Скріншоти:





За створення українських доріжок 5.1 і 2.0 подяка _oles-y,
за запису звуку з ТБ подяка xslim і akon111


Джерело: &
Особиста оцінка: 9


 Трекер:    Зареєстрований   

Завантажити / скачати фільм українською



відео для новачків



 Зареєстрований:   2011-09-29 13:06
 Розмір:   4.25 GB 
 Оцінка фільму:   9.6/10 (Голосів: 37)
   
Віктор 
Відео Гуртом - субтитрування
Відео Гуртом - субтитрування


З нами з: 09.01.10
Востаннє: 07.12.16
Повідомлень: 8663

2011-09-29 13:24  
Додав доріжку 2.0, і не завантажуйте доки не перевірять, але, якщо вам начхати на рейтинг завантажуйте.)
DiGen 
Модератор HD та координатор Команди HD
Модератор HD та координатор Команди HD


З нами з: 12.11.09
Востаннє: 24.06.13
Повідомлень: 1452

2011-09-29 14:14  
Перевірено.
Тільки не розумію потребу в доріжці з 2.0, адже є ж 5.1

Віктор 
Відео Гуртом - субтитрування
Відео Гуртом - субтитрування


З нами з: 09.01.10
Востаннє: 07.12.16
Повідомлень: 8663

2011-09-29 14:17  
DiGen написано:
Тільки не розумію потребу в доріжці з 2.0, адже є ж 5.1


Це для тих хто не любить звук 5.1 із заміненим центральним каналом.

St.Bogush 
VIP


З нами з: 03.04.09
Востаннє: 07.12.16
Повідомлень: 784

2011-10-03 04:31  
А укр. субтитри повні чи тільки для не перекладених місць?
Віктор 
Відео Гуртом - субтитрування
Відео Гуртом - субтитрування


З нами з: 09.01.10
Востаннє: 07.12.16
Повідомлень: 8663

2011-10-03 09:27  
St.Bogush написано:
А укр. субтитри повні чи тільки для не перекладених місць?


Повні. Там лише три фрази неперекладених місць, але в повних сабах є переклад і на ці три фрази.

Rah 
VIP


З нами з: 02.08.09
Востаннє: 30.11.16
Повідомлень: 307

2013-04-14 01:57  
Для чого Аудіо # 2: ???
leroykendall 
Модератор HD


З нами з: 03.01.11
Востаннє: 20.11.16
Повідомлень: 749

2013-04-14 09:10  
Rah
Може комусь треба буде

Ua.bos_01 
VIP


З нами з: 22.06.15
Востаннє: 06.12.16
Повідомлень: 1291

2015-08-16 09:44  
Переглянув фільм, лише тому, що однойменна гра моя найулюбленіша гра! Очікував більшого, але теж не погано. Ражу до перегляду.
zimersz 
Новенький


З нами з: 14.12.14
Востаннє: 06.12.16
Повідомлень: 22

2015-08-16 10:49  
Чому Гітмен?
Ua.bos_01 
VIP


З нами з: 22.06.15
Востаннє: 06.12.16
Повідомлень: 1291

2015-08-16 13:39  
Цитата:
Чому Гітмен?


Теж цікаво!

Robar III 
Попереджень: 2
Попереджень: 2 


З нами з: 18.08.11
Востаннє: 04.12.16
Повідомлень: 1930

2015-08-16 14:27  
тому що Hitler - не хітлер, а гітлер.
Ваш часовий пояс: GMT + 2 Години

Нова тема   Відповісти